Taken down by DMCA request

Gay Castings - Abel Archer (1080P)

CategoryAnal
Download
You need to Login or Signup first.
DescriptionGeneral
Format                        : MPEG-4
Format profile                : Base Media
Codec ID                      : isom
File size                      : 2.60 GiB
Duration                      : 40mn 11s
Overall bit rate              : 9 249 Kbps
Writing application            : Lavf55.42.101

Video
ID                            : 1
Format                        : AVC
Format/Info                    : Advanced Video Codec
Format profile                : Baseline@L3.1
Format settings, CABAC        : No
Format settings, ReFrames      : 2 frames
Codec ID                      : avc1
Codec ID/Info                  : Advanced Video Coding
Duration                      : 40mn 11s
Bit rate                      : 9 114 Kbps
Width                          : 1 920 pixels
Height                        : 1 080 pixels
Display aspect ratio          : 16:9
Frame rate mode                : Constant
Frame rate                    : 29.970 fps
Color space                    : YUV
Chroma subsampling            : 4:2:0
Bit depth                      : 8 bits
Scan type                      : Progressive
Bits/(Pixel*Frame)            : 0.147
Stream size                    : 2.56 GiB (99%)
Writing library                : x264 core 142 r2431 a5831aa
Encoding settings              : cabac=0 / ref=2 / deblock=1:0:0 / analyse=0x1:0x111 / me=hex / subme=6 / psy=1 / psy_rd=1.00:0.00 / mixed_ref=1 / me_range=16 / chroma_me=1 / trellis=1 / 8x8dct=0 / cqm=0 / deadzone=21,11 / fast_pskip=1 / chroma_qp_offset=-2 / threads=2 / lookahead_threads=1 / sliced_threads=0 / nr=0 / decimate=1 / interlaced=0 / bluray_compat=0 / constrained_intra=0 / bframes=0 / weightp=0 / keyint=250 / keyint_min=25 / scenecut=40 / intra_refresh=0 / rc_lookahead=30 / rc=crf / mbtree=1 / crf=18.0 / qcomp=0.60 / qpmin=0 / qpmax=69 / qpstep=4 / ip_ratio=1.40 / aq=1:1.00
Language                      : English

Audio
ID                            : 2
Format                        : AAC
Format/Info                    : Advanced Audio Codec
Format profile                : LC
Codec ID                      : 40
Duration                      : 40mn 11s
Bit rate mode                  : Constant
Bit rate                      : 128 Kbps
Channel(s)                    : 2 channels
Channel positions              : Front: L R
Sampling rate                  : 48.0 KHz
Compression mode              : Lossy
Stream size                    : 36.7 MiB (1%)
Language                      : English

Added2015-07-12 19:52:56
Size2.60 GB (2,788,060,408 bytes)
Views1
Num files1 files
Pictures