BB Party mp4

CategoryBareback
Download
You need to Login or Signup first.
Descriptionormat profile                          : Base Media
Codec ID                                : isom
File size                                : 961 MiB
Duration                                : 2h 52mn
Overall bit rate mode                    : Variable
Overall bit rate                        : 778 Kbps
Encoded date                            : UTC 2015-03-19 12:49:14
Tagged date                              : UTC 2015-03-19 12:49:14
Writing application                      : Lavf51.12.1

Video
ID                                      : 1
Format                                  : AVC
Format/Info                              : Advanced Video Codec
Format profile                          : Baseline@L1.3
Format settings, CABAC                  : No
Format settings, ReFrames                : 2 frames
Format settings, GOP                    : M=1, N=12
Codec ID                                : avc1
Codec ID/Info                            : Advanced Video Coding
Duration                                : 2h 52mn
Bit rate                                : 677 Kbps
Width                                    : 360 pixels
Original width                          : 352 pixels
Height                                  : 240 pixels
Display aspect ratio                    : 4:3
Frame rate mode                          : Constant
Frame rate                              : 29.970 fps
Standard                                : NTSC
Color space                              : YUV
Chroma subsampling                      : 4:2:0
Bit depth                                : 8 bits
Scan type                                : Progressive
Bits/(Pixel*Frame)                      : 0.261
Stream size                              : 837 MiB (87%)
Encoded date                            : UTC 2015-03-19 12:49:14
Tagged date                              : UTC 2015-03-19 12:49:14
Color primaries                          : BT.601 NTSC
Transfer characteristics                : BT.601
Matrix coefficients                      : BT.601
Color range                              : Full

Audio
ID                                      : 2
Format                                  : AAC
Format/Info                              : Advanced Audio Codec
Format profile                          : LC
Codec ID                                : 40
Duration                                : 2h 52mn
Bit rate mode                            : Variable
Bit rate                                : 96.0 Kbps
Channel(s)                              : 2 channels
Channel positions                        : Front: L R
Sampling rate                            : 44.1 KHz
Compression mode                        : Lossy
Stream size                              : 119 MiB (12%)
Encoded date                            : UTC 2015-03-19 12:49:14
Tagged date                              : UTC 2015-03-19 12:49:14


Added2015-03-19 14:29:17
Size961.31 MB (1,008,010,636 bytes)
Views1
Num files1 files
Pictures