Taken down by DMCA request

Bareback All Stars 2 - Bare Twinks

CategoryTwinks
Download
You need to Login or Signup first.
DescriptionBareback All Stars 2 - Bare Twinks

Uploaded by: erikbenny

Video Description:

The Baretwinks boys are back in action for this hot sequel to one of the sites most
raw and cum-filled twink releases. Starring Seth Serenity and Felix Russo, this DVD
is jam-packed with bareback twink fucking so filthy that it will leave you begging
for more. Dont miss out on one of the hottest Baretwinks releases ever complete
with twinks tearing each other's clothes off and filling each other up. Also
starring Thomas Cooper, Ian Graves, Roxy Red, Jackson Miller, Nathan Stratus, and
Jack Presley.



Nerdy Stats:

    General
    Complete name                            : C:VideosDownloadsBareback All
Stars 2 - Bare Twinks
    Format                                  : AVI
    Format/Info                              : Audio Video Interleave
    Format profile                          : OpenDML
    File size                                : 2.41 GiB
    Duration                                : 1h 37mn
    Overall bit rate                        : 3 554 Kbps
    Writing library                          : VirtualDub build 32842/release

    Video
    ID                                      : 0
    Format                                  : MPEG-4 Visual
    Format profile                          : Advanced Simple@L5
    Format settings, BVOP                    : 2
    Format settings, QPel                    : Yes
    Format settings, GMC                    : No warppoints
    Format settings, Matrix                  : Default (H.263)
    Muxing mode                              : Packed bitstream
    Codec ID                                : XVID
    Codec ID/Hint                            : XviD
    Duration                                : 1h 37mn
    Bit rate                                : 3 347 Kbps
    Width                                    : 1 280 pixels
    Height                                  : 720 pixels
    Display aspect ratio                    : 16:9
    Frame rate                              : 29.970 fps
    Color space                              : YUV
    Chroma subsampling                      : 4:2:0
    Bit depth                                : 8 bits
    Scan type                                : Progressive
    Compression mode                        : Lossy
    Bits/(Pixel*Frame)                      : 0.121
    Stream size                              : 2.27 GiB (94%)
    Writing library                          : XviD 58

    Audio
    ID                                      : 1
    Format                                  : AC-3
    Format/Info                              : Audio Coding 3
    Mode extension                          : CM (complete main)
    Format settings, Endianness              : Big
    Codec ID                                : 2000
    Duration                                : 1h 37mn
    Bit rate mode                            : Constant
    Bit rate                                : 192 Kbps
    Channel(s)                              : 2 channels
    Channel positions                        : Front: L R
    Sampling rate                            : 48.0 KHz
    Bit depth                                : 16 bits
    Compression mode                        : Lossy
    Stream size                              : 133 MiB (5%)
    Alignment                                : Aligned on interleaves
    Interleave, duration                    : 33 ms (1.00 video frame)
    Interleave, preload duration            : 512 ms
Added2014-05-24 08:24:06
Size2.41 GB (2,586,593,192 bytes)
Views1
Num files1 files
Pictures