♺ Private Boy Movie - Kane and Dee

You need to Login or Signup first.
DescriptionOriginal upload: 2010-03-23 |
Ultra-cute Thai boys Kane and Dee mix it up, sucking and fucking for a LONG time. Bottom Thai boy finally comes, in the end, while getting fucked, briefly, a second time, by the White Guy.
Title: Kane and Dee
Studio: www.PrivateBoyMovie.com
Released: unknown
Duration: 24 minutes
Private Note: I have no idea when this video was shot and released, since it does NOT currently appear on the www.privateboymovie.com web site.

I like this video a lot! It's mainly featuring HOT sex, with the two very HOT Thai boys 95% of the time. The White Guy only make a couple brief appearances. And, most importantly for MY tastes... Anal PAIN and ABUSE is ABSENT from this video.

But surprisingly, the original video had an awful greenish blue tint to everything, making the boys look quite greenish yellow! (Which MIGHT explain why it's not on their web site!)

This was quite unexpected, and quite unlike the usual high-quality videos we see come from the PrivateBoyMovies ummm... "Studios". It's likely that the room rented for this "shoot" just had an abundance of BLUE everywhere, with greenish florescent lighting, perhaps... and it drastically altered the color quality of the film.

Luckily (for us fans of ThaiBoys) I was able to color correct it to a pretty decent looking result! The boys are sexy pink and brown again, and the freckled "white guy" is quite white and pink! I also sharpend the video, as I usually do.

I included a few "before and after" pictures, above, to give you an idea of just how bad this video first looked!

And, as always, if you appreciate the work I put into creating this color corrected ThaiBoy video, I could really use any gift of bonus points you can afford to give.

I'm usually downloading DVDs from this great torrent site, to create the highest quality and resolution videos to share with you, directly from the DVD files. But this, by nature, tends to chip away at my upload/download ratio, as you can imagine.

Freshly converted directly from the original .wmv files, using the Xvid codec in 2-pass mode, to detect motion, then utilize Variable Bit Rates for the most efficient Video Compression, achieving a uniform look of high quality, plus MP3 audio, resulting in a reasonable file size. This video has a Gspot Qf (Quality Factor) of .271 for near-DVD quality. Enjoy! Thanks!!!
Multimedia Analysis of:  [PrivateBoyMovie] Kane and Dee.avi

Complete name : [PrivateBoyMovie] Kane and Dee.avi
Format : AVI
Format/Info : Audio Video Interleave
File size : 449 MiB
Duration : 23mn 49s
Overall bit rate : 2 633 Kbps
Director : created.with.SUPER(C).v2010.bld.37 / created.with.SUPER(C).v2010.bld.37
Writing application : VirtualDubMod (build 2542/release)
Writing library : VirtualDubMod build 2542/release

Video  ID : 0
Format : MPEG-4 Visual
Format profile : Advanced Simple@L5
Format settings, BVOP : Yes
Format settings, QPel : No
Format settings, GMC : No warppoints
Format settings, Matrix : Default (MPEG)
Muxing mode : Packed bitstream
Codec ID : XVID
Codec ID/Hint : XviD
Duration : 23mn 49s
Bit rate : 2 493 Kbps
Width : 640 pixels
Height : 480 pixels
Display aspect ratio : 4:3
Frame rate : 29.970 fps
Resolution : 8 bits
Colorimetry : 4:2:0
Scan type : Progressive
Bits/(Pixel*Frame) : 0.271
Stream size : 425 MiB (95%)
Writing library : XviD 1.2.1 (UTC 2008-12-04)

Audio  ID : 1
Format : MPEG Audio
Format version : Version 1
Format profile : Layer 3
Codec ID : 55
Codec ID/Hint : MP3
Duration : 23mn 49s
Bit rate mode : Constant
Bit rate : 128 Kbps
Channel(s) : 2 channels
Sampling rate : 44.1 KHz
Stream size : 21.8 MiB (5%)
Alignment : Split accross interleaves
Interleave, duration : 33 ms (1.00 video frame)
Interleave, preload duration : 500 ms
Writing library : LAME3.97
Added2014-08-20 17:28:07
Size448.62 MB (470,407,168 bytes)
Num files1 files