♺ Kamera bk Best Compilation

CategoryVoyeur
Download
You need to Login or Signup first.
DescriptionOriginal upload: 2014-11-09 |
Kamera bk Best Compilation list: 


20 Soldiers.avi 655.15 MB
CSKA.mp4 137.81 MB
Golyj.Specnaz.V.Sportzale.2007.Rus.DVDRip.XviD.AC3.avi 1.61 GB
Kamera RU - Kavkaz2007.avi 1.68 GB
Kavkaz.avi 679.81 MB
No38.avi 404.02 MB
Russian militarians.avi 1.16 GB
123.mp4 1.20 GB


General
      Complete name : Kamera_bk Best Compilation
      Format : AVI
      Format/Info : Audio Video Interleave
      File size : 655 MiB
      Duration : 2h 2mn
      Overall bit rate : 745 Kbps
      Writing library : Boilsoft Joiner build 2411/release
  Video #0
      ID : 0
      Format : MPEG-4 Visual
      Format profile : Simple@L1
      Format settings, BVOP : No
      Format settings, QPel : No
      Format settings, GMC : No warppoints
      Format settings, Matrix : Default (H.263)
      Codec ID : XVID
      Codec ID/Hint : XviD
      Duration : 2h 2mn
      Bit rate : 607 Kbps
      Width : 512 pixels
      Height : 384 pixels
      Display aspect ratio : 4:3
      Frame rate : 25.000 fps
      Color space : YUV
      Chroma subsampling : 4:2:0
      Bit depth : 8 bits
      Scan type : Progressive
      Compression mode : Lossy
      Bits/(Pixel*Frame) : 0.124
      Stream size : 534 MiB (82%)
      Writing library : Lavc50.0.0
  Audio #1
      ID : 1
      Format : MPEG Audio
      Format version : Version 1
      Format profile : Layer 3
      Mode : Dual mono
      Codec ID : 55
      Codec ID/Hint : MP3
      Duration : 2h 2mn
      Bit rate mode : Constant
      Bit rate : 128 Kbps
      Channel(s) : 2 channels
      Sampling rate : 44.1 KHz
      Compression mode : Lossy
      Stream size : 113 MiB (17%)
      Alignment : Split accross interleaves
      Interleave, duration : 40 ms (1.00 video frame)
      Interleave, preload duration : 500 ms


Added2015-12-26 14:16:19
Size7.50 GB (8,048,761,105 bytes)
Views41
Num files8 files
Pictures