Butthole Bukakke

CategoryBareback
Download
You need to Login or Signup first.
DescriptionGeneral
Complete name          :Butthole Bukakke.avi
Format                      : AVI
Format/Info                : Audio Video Interleave
Format profile              : OpenDML
File size                  : 3.50 GiB
Duration                    : 1h 30mn
Overall bit rate            : 5 531 Kbps
Writing application        : Lavf51.12.1

Video
ID                          : 0
Format                      : MPEG-4 Visual
Format profile              : Simple@L1
Format settings, BVOP      : No
Format settings, QPel      : No
Format settings, GMC        : No warppoints
Format settings, Matrix    : Default (H.263)
Codec ID                    : DX50
Codec ID/Hint              : DivX 5
Duration                    : 1h 30mn
Bit rate                    : 5 392 Kbps
Width                      : 852 pixels
Height                      : 480 pixels
Display aspect ratio        : 16:9
Frame rate                  : 29.970 fps
Color space                : YUV
Chroma subsampling          : 4:2:0
Bit depth                  : 8 bits
Scan type                  : Progressive
Compression mode            : Lossy
Bits/(Pixel*Frame)          : 0.440
Stream size                : 3.42 GiB (97%)
Writing library            : Lavc51.40.4

Audio
ID                          : 1
Format                      : MPEG Audio
Format version              : Version 1
Format profile              : Layer 3
Mode                        : Joint stereo
Mode extension              : MS Stereo
Codec ID                    : 55
Codec ID/Hint              : MP3
Duration                    : 1h 30mn
Bit rate mode              : Constant
Bit rate                    : 128 Kbps
Channel(s)                  : 2 channels
Sampling rate              : 44.1 KHz
Compression mode            : Lossy
Stream size                : 83.0 MiB (2%)
Alignment                  : Aligned on interleaves
Interleave, duration        : 26 ms (0.78 video frame)
Writing library            : LAME3.97


Added2015-01-31 16:50:07
Size3.50 GB (3,762,367,256 bytes)
Views14
Num files1 files
Pictures