Taken down by DMCA request

Baitbus - Cole Harvey and Robert Axel

CategoryAnal
Download
You need to Login or Signup first.
DescriptionFormat                                  : Windows Media
File size                                : 511 MiB
Duration                                : 47mn 10s
Overall bit rate mode                    : Constant
Overall bit rate                        : 1 515 Kbps
Maximum Overall bit rate                : 1 612 Kbps
Encoded date                            : UTC 2011-06-02 20:50:55.206

Video
ID                                      : 2
Format                                  : VC-1
Format profile                          : Advanced@L1
Codec ID                                : WVC1
Codec ID/Hint                            : Microsoft
Description of the codec                : VC-1 - VC-1 Advanced Profile
Duration                                : 47mn 10s
Bit rate mode                            : Constant
Bit rate                                : 1 500 Kbps
Width                                    : 852 pixels
Height                                  : 480 pixels
Display aspect ratio                    : 16:9
Frame rate                              : 29.970 fps
Color space                              : YUV
Chroma subsampling                      : 4:2:0
Bit depth                                : 8 bits
Scan type                                : Progressive
Compression mode                        : Lossy
Bits/(Pixel*Frame)                      : 0.122
Stream size                              : 506 MiB (99%)
Language                                : English (US)

Audio
ID                                      : 1
Format                                  : WMA
Format version                          : Version 2
Codec ID                                : 161
Codec ID/Info                            : Windows Media Audio
Description of the codec                : Windows Media Audio 9.2 -  96 kbps, 44 kHz, stereo 2-pass CBR
Duration                                : 47mn 10s
Bit rate mode                            : Constant
Bit rate                                : 96.0 Kbps
Channel(s)                              : 2 channels
Sampling rate                            : 44.1 KHz
Bit depth                                : 16 bits
Stream size                              : 32.4 MiB (6%)
Language                                : English (US)

Added2015-07-31 13:31:41
Size511.12 MB (535,950,426 bytes)
Views1
Num files1 files
Pictures