[All Real Bareback] Alister Armondos 501

CategoryFetish
Download
You need to Login or Signup first.
DescriptionGeneral

Complete name                    : Alister Armondos 501.avi
Format                          : AVI
Format/Info                      : Audio Video Interleave
File size                        : 422 MiB
Duration                        : 52mn 22s
Overall bit rate                : 1 126 Kbps

Video

ID                              : 0
Format                          : MPEG-4 Visual
Format profile                  : Simple@L3
Format settings, BVOP            : No
Format settings, QPel            : No
Format settings, GMC            : No warppoints
Format settings, Matrix          : Default (H.263)
Codec ID                        : XVID
Codec ID/Hint                    : XviD
Duration                        : 52mn 22s
Bit rate                        : 923 Kbps
Width                            : 640 pixels
Height                          : 480 pixels
Display aspect ratio            : 4:3
Frame rate                      : 29.970 fps
Color space                      : YUV
Chroma subsampling              : 4:2:0
Bit depth                        : 8 bits
Scan type                        : Progressive
Bits/(Pixel*Frame)              : 0.100
Stream size                      : 346 MiB (82%)
Writing library                  : XviD 1.1.0 (UTC 2005-11-22)

Audio

ID                              : 1
Format                          : MPEG Audio
Format version                  : Version 1
Format profile                  : Layer 3
Codec ID                        : 55
Codec ID/Hint                    : MP3
Duration                        : 52mn 22s
Bit rate mode                    : Constant
Bit rate                        : 192 Kbps
Channel(s)                      : 2 channels
Sampling rate                    : 44.1 KHz
Stream size                      : 71.9 MiB (17%)
Alignment                        : Split accross interleaves
Interleave, duration            : 33 ms (1.00 video frame)
Writing library                  : LAMELAME_MAJOR_VERSI

**Staff note: title changed as this was the same as the previous upload"
Added2014-05-19 23:15:12
Size453.64 MB (475,672,325 bytes)
Views2
Num files4 files
Pictures