Pumpng MuscI Cody L Photo Shoot 1

CategoryHunks
Download
You need to Login or Signup first.
DescriptionDuration: 1hour 34min

Cody Lewis
Cody is a 19 year old bodybuilder in Modesto,
California who won the NPC California State and
Contra Costa teen overall bodybuilding contests
in 2008.  He next took the stage at the 2010
NPC Teen Nationals in Pittsburgh, PA, where he
took 1st in the heavyweight class.  These
pictures were shot in Modesto a couple of weeks
before that show.

Cody's Stats

Year of Birth: 1990        Height: 5' 11"      Weight: 220 lbs 
Waist: 35"        Chest: 48"    Arms: 17 1/2"    Forearms: 14 1/2" 
Thighs: 27"        Calves: 17 1/2"      Neck: 16"

Format                                  : MPEG-4
Format profile                          : Base Media / Version 2
Codec ID                                : mp42
File size                                : 1,70 GiB
Duration                                : 1h 34min
Overall bit rate mode                    : variabel
Overall bit rate                        : 2 582 Kbps
Encoded date                            : UTC 2015-02-26 04:50:37
Tagged date                              : UTC 2015-02-26 04:50:37

Video
ID                                      : 1
Format                                  : AVC
Format/Info                              : Advanced Video Codec
Format profile                          : High@L3.1
Format settings, CABAC                  : Ja
Format settings, ReFrames                : 4 frames
Codec ID                                : avc1
Codec ID/Info                            : Advanced Video Coding
Duration                                : 1h 34min
Bit rate                                : 2 430 Kbps
Width                                    : 1 280 Pixel
Height                                  : 720 Pixel
Display aspect ratio                    : 16:9
Frame rate mode                          : konstant
Frame rate                              : 29,970 FPS
Color space                              : YUV
Chroma subsampling                      : 4:2:0
Bit depth                                : 8 bits
Scan type                                : progressiv
Bits/(Pixel*Frame)                      : 0.088
Stream size                              : 1,60 GiB (94%)
Writing library                          : x264 core 144 r11 40bb568

Audio
ID                                      : 2
Format                                  : AAC
Format/Info                              : Advanced Audio Codec
Format profile                          : LC
Codec ID                                : 40
Duration                                : 1h 34min
Bit rate mode                            : variabel
Bit rate                                : 147 Kbps
Channel(s)                              : 2 Kanäle
Channel positions                        : Front: L R
Sampling rate                            : 48,0 KHz
Stream size                              : 99,1 MiB (6%)
Encoded date                            : UTC 2015-02-26 04:50:37
Tagged date                              : UTC 2015-02-26 04:50:37



Added2015-05-15 12:58:03
Size1.70 GB (1,824,880,581 bytes)
Views186
Num files1 files
Pictures