♺ Gay - Blue Pictures - Bare My Back (bareback 2004) avi

CategoryBareback
Download
You need to Login or Signup first.
DescriptionOriginal upload: 2013-12-31 |
General
Complete name                    : E:VIDEO LBLUE PICTURES BAREBACKGay - Blue Pictures - Bare My Back (bareback 2004).avi
Format                          : AVI
Format/Info                      : Audio Video Interleave
File size                        : 796 MiB
Duration                        : 1h 37mn
Overall bit rate                : 1 142 Kbps
Writing library                  : VirtualDub build 13870/release

Video
ID                              : 0
Format                          : MPEG-4 Visual
Format settings, BVOP            : 1
Format settings, QPel            : No
Format settings, GMC            : No warppoints
Format settings, Matrix          : Default (H.263)
Muxing mode                      : Packed bitstream
Codec ID                        : DX50
Codec ID/Hint                    : DivX 5
Duration                        : 1h 37mn
Bit rate                        : 1 003 Kbps
Width                            : 512 pixels
Height                          : 384 pixels
Display aspect ratio            : 4:3
Frame rate                      : 29.970 fps
Color space                      : YUV
Chroma subsampling              : 4:2:0
Bit depth                        : 8 bits
Scan type                        : Progressive
Compression mode                : Lossy
Bits/(Pixel*Frame)              : 0.170
Stream size                      : 699 MiB (88%)
Writing library                  : DivX 5.0.5 Beta(Tahanea) (UTC 2003-01)

Audio
ID                              : 1
Format                          : MPEG Audio
Format version                  : Version 1
Format profile                  : Layer 3
Codec ID                        : 55
Codec ID/Hint                    : MP3
Duration                        : 1h 37mn
Bit rate mode                    : Constant
Bit rate                        : 128 Kbps
Channel(s)                      : 2 channels
Sampling rate                    : 44.1 KHz
Compression mode                : Lossy
Delay relative to video          : 13ms
Stream size                      : 89.2 MiB (11%)
Alignment                        : Split accross interleaves
Interleave, duration            : 33 ms (1.00 video frame)
Interleave, preload duration    : 500 ms


Added2016-01-18 17:31:13
Size796.21 MB (834,891,776 bytes)
Views9
Num files1 files
Pictures