BiLatinmen com - Business & Hipnotik avi

CategoryLatino
Download
You need to Login or Signup first.
DescriptionBusiness & Hipnotik.avi
      Format : AVI
      Format/Info : Audio Video Interleave
      File size : 297 MiB
      Duration : 19mn 1s
      Overall bit rate : 2 181 Kbps
      Writing application : MEncoder SVN-r30881(20100311-gcc4.3.3)
      Writing library : VirtualDub build 32842/release
  Video #0
      ID : 0
      Format : MPEG-4 Visual
      Format profile : Advanced Simple@L5
      Format settings, BVOP : 2
      Format settings, QPel : No
      Format settings, GMC : No warppoints
      Format settings, Matrix : Default (H.263)
      Codec ID : XVID
      Codec ID/Hint : XviD
      Duration : 19mn 1s
      Bit rate : 2 029 Kbps
      Width : 640 pixels
      Height : 480 pixels
      Display aspect ratio : 4:3
      Frame rate : 60.000 fps
      Color space : YUV
      Chroma subsampling : 4:2:0
      Bit depth : 8 bits
      Scan type : Progressive
      Compression mode : Lossy
      Bits/(Pixel*Frame) : 0.110
      Stream size : 276 MiB (93%)
      Writing library : XviD 1.2.1 (UTC 2008-12-04)
  Audio #1
      ID : 1
      Format : MPEG Audio
      Format version : Version 1
      Format profile : Layer 3
      Mode : Joint stereo
      Mode extension : MS Stereo
      Codec ID : 55
      Codec ID/Hint : MP3
      Duration : 19mn 1s
      Bit rate mode : Constant
      Bit rate : 128 Kbps
      Channel(s) : 2 channels
      Sampling rate : 44.1 KHz
      Compression mode : Lossy
      Stream size : 17.4 MiB (6%)
      Alignment : Split accross interleaves
      Interleave, duration : 17 ms (1.00 video frame)
      Interleave, preload duration : 500 ms
Added2014-09-21 09:08:12
Size296.82 MB (311,233,500 bytes)
Views5
Num files1 files
Pictures