GayAsianTwinkz - A Freaky Foursome - HD 1080p - Bareback - Filipino - No Mask

CategoryAsian
Download
You need to Login or Signup first.
DescriptionFour Fun-loving Filipino friends, including one ladyboy , get freaky, having a fun amateur bareback foursome on one tiny bed, in the Philippines.

========Detailed Technical Info=================

[General] Complete name : GayAsianTwinkz - A Freaky Foursome.wmv
Format : Windows Media
File size : 624 MiB
Duration : 22mn 17s
Overall bit rate mode : Variable
Overall bit rate : 3 912 Kbps
Maximum Overall bit rate : 10.5 Mbps
Encoded date : UTC 2013-06-26 09:10:14.713

[Video] ID : 2
Format : VC-1
Format profile : MP@HL
Codec ID : WMV3
Codec ID/Info : Windows Media Video 9
Codec ID/Hint : WMV3
Description of the codec : Windows Media Video 9 - Professional
Duration : 22mn 17s
Bit rate mode : Variable
Bit rate : 3 500 Kbps
Width : 1 920 pixels
Height : 1 080 pixels
Display aspect ratio : 16:9
Frame rate : 29.970 fps
Color space : YUV
Chroma subsampling : 4:2:0
Bit depth : 8 bits
Scan type : Progressive
Compression mode : Lossy
Bits/(Pixel*Frame) : 0.056
Stream size : 558 MiB (89%)
Language : English (US)
NumberOfFrames : 40062

[Audio] ID : 1
Format : WMA
Format profile : Pro
Codec ID : 162
Codec ID/Info : Windows Media Audio
Description of the codec : Windows Media Audio 10 Professional - 440 kbps, 44 kHz, 2 channel 24 bit 2-pass VBR
Duration : 22mn 17s
Bit rate mode : Variable
Bit rate : 406 Kbps
Channel count : 2 channels
Sampling rate : 44.1 KHz
Bit depth : 24 bits
Stream size : 64.7 MiB (10%)
Language : English (US)
NumberOfFrames : 3293
Added2014-07-18 16:52:08
Size653.70 MB (685,458,948 bytes)
Views23
Num files43 files
Pictures