♺ Wrestle Factory - Brave - First Battle!! The Taiyo's Path [WFA72]

CategoryAsian
Download
You need to Login or Signup first.
DescriptionOriginal upload: 2012-12-03 |
Original Name: BRAVE ~初陣!!太陽の軌跡~
Release Date: 2012/04/28
hxxp://wrestlefactory.cart.fc2.com/ca63/196/

General
Format                                  : MPEG-4
Codec ID                                : M4V
File size                                : 1.56 GiB
Duration                                : 1h 8mn
Overall bit rate mode                    : Variable
Overall bit rate                        : 3 283 Kbps
Encoded date                            : UTC 2012-08-21 13:15:23
Tagged date                              : UTC 2012-08-21 13:15:23

Video
ID                                      : 1
Format                                  : AVC
Format/Info                              : Advanced Video Codec
Format profile                          : Main@L4.1
Format settings, CABAC                  : Yes
Format settings, ReFrames                : 4 frames
Codec ID                                : avc1
Codec ID/Info                            : Advanced Video Coding
Duration                                : 1h 8mn
Bit rate mode                            : Variable
Bit rate                                : 3 155 Kbps
Maximum bit rate                        : 15.0 Mbps
Width                                    : 1 280 pixels
Height                                  : 720 pixels
Display aspect ratio                    : 16:9
Frame rate mode                          : Constant
Frame rate                              : 59.940 fps
Color space                              : YUV
Chroma subsampling                      : 4:2:0
Bit depth                                : 8 bits
Scan type                                : Progressive
Bits/(Pixel*Frame)                      : 0.057
Stream size                              : 1.50 GiB (96%)
Title                                    : Vid
Writing library                          : x264 core 125 r2200 999b753
Encoding settings                        : cabac=1 / ref=4 / deblock=1:-1:-1 / analyse=0x1:0x131 / me=umh / subme=10 / psy=1 / psy_rd=1.00:0.15 / mixed_ref=1 / me_range=24 / chroma_me=1 / trellis=2 / 8x8dct=0 / cqm=0 / deadzone=21,11 / fast_pskip=1 / chroma_qp_offset=-3 / threads=9 / lookahead_threads=1 / sliced_threads=0 / slices=4 / nr=40 / decimate=1 / interlaced=0 / bluray_compat=1 / constrained_intra=0 / bframes=3 / b_pyramid=0 / b_adapt=2 / b_bias=0 / direct=3 / weightb=0 / open_gop=0 / weightp=0 / keyint=120 / keyint_min=1 / scenecut=40 / intra_refresh=0 / rc_lookahead=60 / rc=crf / mbtree=1 / crf=18.0 / qcomp=0.60 / qpmin=0 / qpmax=69 / qpstep=4 / vbv_maxrate=15000 / vbv_bufsize=15000 / crf_max=0.0 / nal_hrd=vbr / ip_ratio=1.40 / aq=1:1.00
Language                                : Japanese
Encoded date                            : UTC 2012-08-21 13:15:23
Tagged date                              : UTC 2012-08-21 13:16:28
Color primaries                          : BT.709
Transfer characteristics                : BT.709
Matrix coefficients                      : BT.709

Audio
ID                                      : 2
Format                                  : AAC
Format/Info                              : Advanced Audio Codec
Format profile                          : LC
Codec ID                                : 40
Duration                                : 1h 8mn
Bit rate mode                            : Variable
Bit rate                                : 122 Kbps
Maximum bit rate                        : 150 Kbps
Channel(s)                              : 2 channels
Channel positions                        : Front: L R
Sampling rate                            : 48.0 KHz
Compression mode                        : Lossy
Stream size                              : 59.6 MiB (4%)
Title                                    : Aud
Language                                : Japanese
Encoded date                            : UTC 2012-08-21 13:16:27
Tagged date                              : UTC 2012-08-21 13:16:28

Added2016-05-09 21:47:05
Size1.56 GB (1,680,323,308 bytes)
Views778
Num files1 files
Pictures