Two black hunks fuck bareback Nice flip-flop and cumshot sceenes

CategoryBlack
Download
You need to Login or Signup first.
DescriptionComplete name: Black Flip-flop.mp4
Format: MPEG-4
Format profile: Base Media / Version 2
Codec ID: mp42 (mp42)
File size: 811 MiB
Duration: 22mn 1s
Overall bit rate: 5 149 Kbps
Codirector: codirector
Production studio: studio
ContentType: Unknown Type
Encoded date: UTC 2016-01-20 14:20:20
Tagged date: UTC 2016-01-20 14:20:20

Video
ID: 1
Format: AVC
Format/Info: Advanced Video Codec
Format profile: Baseline@L3.1
Format settings, CABAC: No
Format settings, ReFrames: 1 frame
Format settings, GOP: M=1, N=30
Muxing mode: Container profile=Baseline@3.0
Codec ID: avc1
Codec ID/Info: Advanced Video Coding
Duration: 22mn 1s
Source duration: 22mn 1s
Bit rate: 5 016 Kbps
Width: 1 280 pixels
Height: 720 pixels
Display aspect ratio: 16:9
Frame rate mode: Constant
Frame rate: 29.970 (30000/1001) fps
Color space: YUV
Chroma subsampling: 4:2:0
Bit depth: 8 bits
Scan type: Progressive
Bits/(Pixel*Frame): 0.182
Stream size: 790 MiB (97%)
Source stream size: 790 MiB (97%)
Language: English

Audio
ID: 2
Format: AAC
Format/Info: Advanced Audio Codec
Format profile: LC
Codec ID: 40
Duration: 22mn 1s
Bit rate mode: Constant
Bit rate: 128 Kbps
Channel(s): 2 channels
Channel positions: Front: L R
Sampling rate: 44.1 KHz
Frame rate: 43.066 fps (1024 spf)
Compression mode: Lossy
Stream size: 20.2 MiB (2%)
Title: Stereo
Language: English
Default: Yes
Alternate group: 1
Added2016-01-20 16:35:04
Size811.79 MB (851,225,201 bytes)
Views7
Num files16 files
Pictures