Taken down by DMCA request

Real Cam: Jessie Montgomery and Jamie Sanders, Bareback Twinks

CategoryBareback
Download
You need to Login or Signup first.
DescriptionBoyfriends Jessie Montgomery and Jamie Sanders share the story of how they first met as flirty new porn models before inviting you into their bedroom for an intimate Real Cam fuckfest. They put on a show that only true Porn Star lovers could deliver as the bareback boys flip-fuck showing off all their favorite positions.

Released: February 27, 2014
Format: mp4
Size: 537 MB
Resolution: 640×360
Duration: 00:46:10

===============Technical Details===============

[General] Complete name : JamieSanders-JessieMontgomery.mp4
Format : MPEG-4
Format profile : Base Media / Version 2
Codec ID : mp42
File size : 537 MiB
Duration : 46mn 10s
Overall bit rate mode : Variable
Overall bit rate : 1 627 Kbps
Encoded date : UTC 2014-02-24 18:25:23
Tagged date : UTC 2014-02-24 18:25:53

[Video] ID : 1
Format : AVC
Format/Info : Advanced Video Codec
Format profile : Baseline@L3.1
Format settings, CABAC : No
Format settings, ReFrames : 4 frames
Format settings, GOP : M=1, N=64
Codec ID : avc1
Codec ID/Info : Advanced Video Coding
Duration : 46mn 10s
Bit rate mode : Variable
Bit rate : 1 495 Kbps
Maximum bit rate : 4 195 Kbps
Width : 640 pixels
Height : 360 pixels
Display aspect ratio : 16:9
Frame rate mode : Constant
Frame rate : 23.976 fps
Color space : YUV
Chroma subsampling : 4:2:0
Bit depth : 8 bits
Scan type : Progressive
Bits/(Pixel*Frame) : 0.271
Stream size : 494 MiB (92%)
Language : English
Encoded date : UTC 2014-02-24 18:24:41
Tagged date : UTC 2014-02-24 18:25:53
Color primaries : BT.709
Transfer characteristics : BT.709
Matrix coefficients : BT.709

[Audio] ID : 2
Format : AAC
Format/Info : Advanced Audio Codec
Format profile : LC
Codec ID : 40
Duration : 46mn 10s
Source duration : 46mn 10s
Bit rate mode : Constant
Bit rate : 76.2 Kbps
Nominal bit rate : 96.0 Kbps
Channel count : 2 channels
Channel positions : Front: L R
Sampling rate : 22.05 KHz
Compression mode : Lossy
Stream size : 25.2 MiB (5%)
Source stream size : 25.2 MiB (5%)
Language : English
Encoded date : UTC 2014-02-24 18:24:41
Tagged date : UTC 2014-02-24 18:25:53
Added2014-05-01 19:15:46
Size539.42 MB (565,626,045 bytes)
Views2
Num files43 files
Pictures