SDBoy - Flip-Fuck for Fun - 720p - Remastered

CategoryBareback
Download
You need to Login or Signup first.
DescriptionHell yeah, all aboard this fun fuck fest from SDBoy...!!!

These two Latinos aren't in the kitchen, but they are cooking up something "caliente." SDBoy has Darwin, in the white underwear, and Ethan, in the blue underwear, here for some flip-fuck-fun.

Ethan is first to suck; he pulls back Darwin’s foreskin and sucks fully on the glistening head. Slapping his friend on the ass, Darwin then fingers and proceeds to enter Ethan, riding atop. Sliding in and out with such ease, i think these two have been "cooking" for a while.

Flipping Ethan over, Darwin thrust from behind, in several positions. At one point, Ethan has to brace himself against the couch, while enjoying the fast-ass-fucking.

Taking over, Ethan works his very thick cock into Darwin’s hole; it takes a bit, but the sensation is worth it.

Slowing the pace, Ethan pumps all the cum out of his partner. He then jacks off, leans over Darwin, and coats the boy with "leche." {Studio Promotion}

Preview Video (this not Remastered) ===>>> http://content.zbuckz.com/sdboy/sdboy-flipfuck.mp4

Title: Flip-Fuck for Fun (Remastered)
Studio: SDBoy
Released: April, 2014
Duration: 16min 42sec
Models: Darwin, In the White Underwear, and Ethan, In the Blue Underwear
Tags: ~Latino, ~Bareback, ~slim, ~handsome, ~cute, ~flip-fuck, ~hung, ~cum shots

This quickie project was a delight; the video is CRISP, the focus is SHARP, and the action is HOT!

Includes 77  hand-selected photos, for a terrific Windows Slideshow!

Remastering consisted of uncompressing the video, stripping off the audio and reducing background air-conditioner noise about 12db, and re-encoding with Lame3.98r MP3;  boosting Chroma Saturation to 113% to correct for minor washed-out colors, changing Chroma Hue 2 degrees away from red for a more natural skin tone, and boosting sharpness 18 of a possible 64 to bring all the available detail back to life...; re-encoding with H264 in two passes, data bit rate optimized at a q factor of 0.200, and muxing this back together with the MP3 audio. The results are very impressive, see for yourself!

Enjoy!
Pawpcorn

Multimedia Analysis:
[General]
Complete name : SDBoy - Flip-Fuck for Fun - 720p - Remastered.mp4
Format : MPEG-4
Format profile : Base Media
Codec ID : isom
File size : 679 MiB
Duration : 16mn 42s
Overall bit rate : 5 678 Kbps
Encoded date : UTC 2015-10-29 16:04:31
Tagged date : UTC 2015-10-29 16:04:31

[Video] ID : 1
Format : AVC
Format/Info : Advanced Video Codec
Format profile : High@L3.1
Format settings, CABAC : Yes
Format settings, ReFrames : 3 frames
Codec ID : avc1
Codec ID/Info : Advanced Video Coding
Duration : 16mn 42s
Source duration : 2s 39ms
Bit rate : 5 535 Kbps
Maximum bit rate : 11.5 Mbps
Width : 1 280 pixels
Height : 720 pixels
Display aspect ratio : 16:9
Frame rate mode : Constant
Frame rate : 30.000 fps
Color space : YUV
Chroma subsampling : 4:2:0
Bit depth : 8 bits
Scan type : Progressive
Bits/(Pixel*Frame) : 0.200
Stream size : 663 MiB (98%)
Source stream size : 663 MiB (98%)
Writing library : x264 core 146 r2538bm 121396c
Encoding settings : cabac=1 / ref=3 / deblock=1:0:0 / analyse=0x3:0x113 / me=hex / subme=7 / psy=1 / psy_rd=1.00:0.00 / mixed_ref=1 / me_range=16 / chroma_me=1 / trellis=1 / 8x8dct=1 / cqm=0 / deadzone=21,11 / fast_pskip=1 / chroma_qp_offset=-2 / threads=2 / lookahead_threads=2 / sliced_threads=1 / slices=2 / nr=0 / decimate=1 / interlaced=0 / bluray_compat=0 / constrained_intra=0 / bframes=0 / weightp=2 / keyint=250 / keyint_min=25 / scenecut=40 / intra_refresh=0 / rc=2pass / mbtree=0 / bitrate=5535 / ratetol=1.0 / qcomp=0.60 / qpmin=0 / qpmax=69 / qpstep=4 / cplxblur=20.0 / qblur=0.5 / ip_ratio=1.40 / aq=1:1.00
Encoded date : UTC 2015-10-29 15:06:06
Tagged date : UTC 2015-10-29 16:05:16
mdhd_Duration : 1002767

[Audio] ID : 2
Format : MPEG Audio
Format version : Version 1
Format profile : Layer 3
Codec ID : 6B
Duration : 16mn 42s
Bit rate mode : Constant
Bit rate : 128 Kbps
Maximum bit rate : 132 Kbps
Channel(s) : 2 channels
Sampling rate : 48.0 KHz
Compression mode : Lossy
Stream size : 15.3 MiB (2%)
Writing library : LAME3.98r
Encoding settings : -m s -V 4 -q 3 -lowpass 17 -b 128
Language : Spanish
Encoded date : UTC 2015-10-29 16:05:15
Tagged date : UTC 2015-10-29 16:05:16
Added2015-11-02 05:42:41
Size705.72 MB (739,997,876 bytes)
Views9
Num files79 files
Pictures