GayAsianPiss com - 366 - A Wet Afternoon - Color Corrected & Resized - Bareback - No Mask

CategoryAsian
Download
You need to Login or Signup first.
DescriptionSim (our slim-bodied Thai hero with incredible perky nipples) gets his new buddy Por all wet (three times!, while fully erect! How do you DO that? lol;) and then fucks, and fucks and fucks some more, like there's no tomorrow. Por obviously LOVES being fucked, staying rock-hard, throughout...

Title: GayAsianPiss.com - 366 - A Wet Afternoon - Color Corrected & Resized
Studio: GayAsianPiss.com
Released: 2012
Duration: 40 minutes
Resolution: 1024w x 576h (after the 16:9 DAR (Display Aspect Ratio) setting corrects the actual 720w x 576h video data)

===================Personal Notes========================
Our Thai Top, Khun "Sim", is always a favorite of mine, due to
1) his beautiful body,
2) his amazing lovely perky nipples, (which [a FIRST for me to witness in THIS video!] he finally demonstrates are his erotic zones too, as he rubs and plays with them, at the beginning of this video... I would just love to assist him there, in real life, endlessly...),
3) his unabashed style of sex performance, where he exhibits NO self-consciousness or shyness, during the on-camera shoots, AND
4) his ability to top and fuck seemingly endlessly...!!!
5) Having shown, in the past, that he's versatile, able and willing to bottom too, when asked to do so! 
6) His lovely face and beautiful eyes, with rather feminine features, and cute hairstyle, ALL of which I adore SO much, here in the LOS (Land of Smiles) [Thailand].
7) His interestingly shaped cock, pointed out and downwards, seemingly DESIGNED for perfect prostate stimulation and painless anal fucking...

Our bottom boy, Por, is notable too, for being a quite willing and engaged member of this sexual escapade, getting quite HARD and staying HARD and aroused, throughout the performance. He's got a somewhat modest cock size, yet I think he's just adorable. Being willing to be pissed upon, into his face, even, is a huge plus, considering this is "GayAsianPiss" lol...

===================Technical Notes========================
Color-Corrected to enhance picture quality, and add a sense of improved lighting to the beautiful boy's bodies... Adding a 121% setting to "Intensity" and a 19 (of 64) sharpness increase, helps lighten up the boy's bodies and sharpen the focus, making this fantastic video THAT much more enjoyable to watch. See the Before&After photo, and see if you agree!!

Resized from the odd size of 736 pixels wide to 414 pixels high, I resized this video to the standard PAL size of 1024 wide to 576 high (actually 720w x 576h, with a DAR of 16:9, which resolves to 1024x576, upon viewing), using the Lanczos3 filter algorithm for best resize quality, for enhanced viewing pleasure.

Video Compression was achieved using the two-pass version of the Xvid codec, where the first pass recorded picture movement into a data file, and the second pass used this data to create a variable data bit rate, to achieve (in this case) a Bits/(Pixel*Frame) rate of 0.289.  Conventional wisdom is that video data rates resulting in a Qbits rates GREATER than 0.2 are undetectable by the human eye as being any better than 0.2.  Audio Compression was achieved using the MP3, LAME3.98.4 codec.

===============Detailed Technical Information=============
[General] Complete name : GayAsianPiss - 366 - A Wet Afternoon - Color Corrected & Resized.avi
Format : AVI
Format/Info : Audio Video Interleave
File size : 1.05 GiB
Duration : 40mn 11s
Overall bit rate : 3 733 Kbps
Writing library : VirtualDub build 32839/release

[Video] ID : 0
Format : MPEG-4 Visual
Format profile : Advanced Simple@L5
Format settings, BVOP : 2
Format settings, QPel : No
Format settings, GMC : No warppoints
Format settings, Matrix : Default (MPEG)
Muxing mode : Packed bitstream
Codec ID : XVID
Codec ID/Hint : XviD
Duration : 40mn 11s
Bit rate : 3 593 Kbps
Width : 720 pixels
Height : 576 pixels
Display aspect ratio : 16:9
Frame rate : 29.970 fps
Standard : PAL
Color space : YUV
Chroma subsampling : 4:2:0
Bit depth : 8 bits
Scan type : Progressive
Compression mode : Lossy
Bits/(Pixel*Frame) : 0.289
Stream size : 1.01 GiB (96%)
Writing library : XviD 64

[Audio] ID : 1
Format : MPEG Audio
Format version : Version 1
Format profile : Layer 3
Mode : Joint stereo
Mode extension : MS Stereo
Codec ID : 55
Codec ID/Hint : MP3
Duration : 40mn 11s
Bit rate mode : Constant
Bit rate : 128 Kbps
Channel count : 2 channels
Sampling rate : 48.0 KHz
Compression mode : Lossy
Stream size : 36.8 MiB (3%)
Alignment : Split accross interleaves
Interleave, duration : 33 ms (1.00 video frame)
Interleave, preload duration : 500 ms
Added2014-06-16 18:55:58
Size1.06 GB (1,139,252,338 bytes)
Views6
Num files84 files
Pictures