♺ duga jp - Famous Gymnast U-kun and His Demon Step-Father [10dai-0002]

CategoryAsian
Download
You need to Login or Signup first.
DescriptionOriginal upload: 2012-11-26 |
Original Title: 有名体操選手Uクンと鬼畜義父
Release Date: 2010/04/28
hxxp://duga.jp/ppv/10dai-0002/

General
Format                                  : Windows Media
File size                                : 1.18 GiB
Duration                                : 1h 29mn
Overall bit rate mode                    : Constant
Overall bit rate                        : 1 904 Kbps
Maximum Overall bit rate                : 2 019 Kbps
Performer                                : DUGA
Encoded date                            : UTC 2010-11-10 16:39:54.750
Copyright                                : ??

Video
ID                                      : 2
Format                                  : VC-1
Format profile                          : MP@ML
Codec ID                                : WMV3
Codec ID/Info                            : Windows Media Video 9
Codec ID/Hint                            : WMV3
Description of the codec                : Windows Media Video 9 - Professional
Duration                                : 1h 29mn
Bit rate mode                            : Constant
Bit rate                                : 1 872 Kbps
Width                                    : 640 pixels
Height                                  : 480 pixels
Display aspect ratio                    : 4:3
Frame rate                              : 29.970 fps
Bit depth                                : 8 bits
Scan type                                : Progressive
Compression mode                        : Lossy
Bits/(Pixel*Frame)                      : 0.203
Stream size                              : 1.17 GiB (98%)

Audio
ID                                      : 1
Format                                  : WMA
Format version                          : Version 2
Codec ID                                : 161
Codec ID/Info                            : Windows Media Audio
Description of the codec                : Windows Media Audio 9.2 - 128 kbps, 48 kHz, stereo (A/V) 1-pass CBR
Duration                                : 1h 29mn
Bit rate mode                            : Constant
Bit rate                                : 128 Kbps
Channel(s)                              : 2 channels
Sampling rate                            : 48.0 KHz
Bit depth                                : 16 bits
Stream size                              : 81.6 MiB (7%)
Added2016-10-29 12:23:06
Size1.18 GB (1,272,273,974 bytes)
Views1325
Num files1 files
Pictures