Taken down by DMCA request

Blakemason Pack 3

CategoryAnal
Download
You need to Login or Signup first.
DescriptionFormat : MPEG-4
Format profile : Base Media / Version 2
Codec ID : mp42
File size : 648 MiB
Duration : 18mn 45s
Overall bit rate mode : Variable
Overall bit rate : 4 828 Kbps
Encoded date : UTC 2009-11-19 18:19:21
Tagged date : UTC 2009-11-20 22:05:55
Writing application : Sorenson Squeeze 5.0

Video
ID : 2
Format : MPEG-4 Visual
Format profile : Main@L4
Format settings, BVOP : Yes
Format settings, QPel : No
Format settings, GMC : No warppoints
Format settings, Matrix : Default (H.263)
Codec ID : 20
Duration : 18mn 45s
Bit rate mode : Variable
Bit rate : 4 567 Kbps
Nominal bit rate : 752 Kbps
Maximum bit rate : 12.9 Mbps
Width : 1 280 pixels
Height : 720 pixels
Display aspect ratio : 16:9
Frame rate mode : Constant
Frame rate : 25.000 fps
Color space : YUV
Bit depth : 8 bits
Scan type : Progressive
Compression mode : Lossy
Bits/(Pixel*Frame) : 0.198
Stream size : 613 MiB (95%)
Encoded date : UTC 2009-11-19 18:19:21
Tagged date : UTC 2009-11-19 18:19:21

Audio
ID : 1
Format : AAC
Format/Info : Advanced Audio Codec
Format profile : LC
Codec ID : 40
Duration : 18mn 45s
Bit rate mode : Variable
Bit rate : 256 Kbps
Channel(s) : 2 channels
Channel positions : Front: L R
Sampling rate : 48.0 KHz
Compression mode : Lossy
Stream size : 34.4 MiB (5%)

BM0503_Samuel_Super_Res_720p.wmv 968.96 MB
BM0496_Jed_And_Tim_Super_Res_720p.wmv 803.82 MB
BM0509_JP_Super_Res_720p.wmv 799.09 MB
BM0504_Adam_W_And_John_W_Super_Res_720p.wmv 797.4 MB
BM0500_Jack_And_Tyler_M_Super_Res_720p.wmv 797.11 MB
BM0499_Paul_W_Super_Res_720p.wmv 793.84 MB
BM0502_Sean_H_And_Tommy_Super_Res_720p.wmv 790.81 MB
BM0506_Leroy_And_Tony_Super_Res_720p.wmv 780.96 MB
BM0501_Jake_K_Super_Res_720p.wmv 768.27 MB
BM0497_Adam_W_Super_Res_720p.wmv 748.1 MB
BM0507_Billy_S_Super_Res_720p.wmv 737.07 MB
BM0505_Seth_R_Super_Res_720p.wmv 728.59 MB
BM0498_Alex_C_And_Dave_Super_Res_720p.wmv 696.53 MB
BM0508_Aarron_And_Adam_Super_Res_720p.wmv 685.28 MB


Added2014-06-18 16:15:14
Size10.64 GB (11,425,082,608 bytes)
Views3
Num files14 files
Pictures