♺ CATALINA - ESCAPE TO ECHO BEACH

CategoryHunks
Download
You need to Login or Signup first.
DescriptionOriginal upload: 2013-01-23 |
Hunky Marine Mike Radcliffe is on leave and off to the beach
in this Josh Eliot sizzler! Tuck Johnson and hot hairy
daddy Mark Sargent get hungry on each other in the dunes
surrounding Echo Beach, while Radcliffe gets
"double-penetrated" by Blake Harper and Jason Branch!
Other beach-babes include Eduardo, Phoenix, and Paul Wendt.
Starring: Phoenix, Eduardo, Jason Branch, Blake Harper, Tuck
Johnson, Mike Radcliffe, Mark Sargent, Paul Wendt.
Director: Josh Elliot
Duration:1h 20mn

Mediainfo:
Format                                  : AVI
Format/Info                              : Audio Video Interleave
Format profile                          : OpenDML
File size                                : 1.29 GiB
Duration                                : 1h 20mn
Overall bit rate                        : 2 289 Kbps
Writing application                      : MEncoder SVN-r29352(20090610-gcc4.3.3)
Writing library                          : MPlayer

Video
ID                                      : 0
Format                                  : MPEG-4 Visual
Format profile                          : Simple@L1
Format settings, BVOP                    : No
Format settings, QPel                    : No
Format settings, GMC                    : No warppoints
Format settings, Matrix                  : Default (H.263)
Codec ID                                : DX50
Codec ID/Hint                            : DivX 5
Duration                                : 1h 20mn
Bit rate                                : 2 145 Kbps
Width                                    : 720 pixels
Height                                  : 528 pixels
Display aspect ratio                    : 4:3
Frame rate                              : 29.970 fps
Color space                              : YUV
Chroma subsampling                      : 4:2:0
Bit depth                                : 8 bits
Scan type                                : Progressive
Compression mode                        : Lossy
Bits/(Pixel*Frame)                      : 0.188
Stream size                              : 1.21 GiB (94%)
Writing library                          : Lavc52.30.2

Audio
ID                                      : 1
Format                                  : MPEG Audio
Format version                          : Version 1
Format profile                          : Layer 3
Mode                                    : Joint stereo
Mode extension                          : MS Stereo
Codec ID                                : 55
Codec ID/Hint                            : MP3
Duration                                : 1h 20mn
Bit rate mode                            : Constant
Bit rate                                : 128 Kbps
Channel(s)                              : 2 channels
Sampling rate                            : 44.1 KHz
Compression mode                        : Lossy
Stream size                              : 73.8 MiB (6%)
Alignment                                : Aligned on interleaves
Interleave, duration                    : 26 ms (0.78 video frame)
Interleave, preload duration            : 522 ms



Added2015-08-31 00:36:07
Size1.29 GB (1,384,406,730 bytes)
Views521
Num files1 files
Pictures