Taken down by DMCA request

phoenixxx - Daddy Poolside Prick Loving - HD

CategoryDaddies / Sons
Download
You need to Login or Signup first.
DescriptionAlex is enjoying she sun on his naked body when his horny daydreaming is interrupted by the arrival of Stefan's bouncing beach-ball from over the fence. The boy likes what he sees though, as any gay boy would, and before you know it the two are engaged in a cock swapping suck session that see the tanned muscled daddy giving up his ass for a rampant poolside fuck! With the boys cum dripping down his tanned back, daddy Alex is ready to jack out his own and decorate the boys slender chest!

ormat                                  : MPEG-4
Format profile                          : Base Media
Codec ID                                : isom
File size                                : 1.04 GiB
Duration                                : 22mn 40s
Overall bit rate mode                    : Variable
Overall bit rate                        : 6 543 Kbps
Encoded date                            : UTC 2014-05-14 11:01:20
Tagged date                              : UTC 2014-05-14 11:01:20

Video
ID                                      : 1
Format                                  : AVC
Format/Info                              : Advanced Video Codec
Format profile                          : High@L4.1
Format settings, CABAC                  : Yes
Format settings, ReFrames                : 4 frames
Codec ID                                : avc1
Codec ID/Info                            : Advanced Video Coding
Duration                                : 22mn 40s
Bit rate                                : 6 354 Kbps
Maximum bit rate                        : 20.7 Mbps
Width                                    : 1 920 pixels
Height                                  : 1 080 pixels
Display aspect ratio                    : 16:9
Frame rate mode                          : Constant
Frame rate                              : 29.970 fps
Color space                              : YUV
Chroma subsampling                      : 4:2:0
Bit depth                                : 8 bits
Scan type                                : Progressive
Bits/(Pixel*Frame)                      : 0.102
Stream size                              : 1.01 GiB (97%)
Writing library                          : x264 core 118 r2085kMod 8a62835
Encoding settings                        : cabac=1 / ref=3 / deblock=1:0:0 / analyse=0x3:0x113 / me=hex / subme=7 / psy=1 / fade_compensate=0.00 / psy_rd=1.00:0.00 / mixed_ref=1 / me_range=16 / chroma_me=1 / trellis=1 / 8x8dct=1 / cqm=0 / deadzone=21,11 / fast_pskip=1 / chroma_qp_offset=-2 / threads=12 / sliced_threads=0 / nr=0 / decimate=1 / interlaced=0 / bluray_compat=0 / constrained_intra=0 / bframes=3 / b_pyramid=2 / b_adapt=1 / b_bias=0 / direct=1 / weightb=1 / open_gop=0 / weightp=2 / keyint=250 / keyint_min=25 / scenecut=40 / intra_refresh=0 / rc_lookahead=40 / rc=crf / mbtree=1 / crf=21.0000 / qcomp=0.60 / qpmin=0 / qpmax=69 / qpstep=4 / vbv_maxrate=30000 / vbv_bufsize=30000 / crf_max=0.0 / nal_hrd=none / ip_ratio=1.40 / aq=1:1.00
Encoded date                            : UTC 2014-05-14 11:01:20
Tagged date                              : UTC 2014-05-14 11:01:30

Audio
ID                                      : 2
Format                                  : AAC
Format/Info                              : Advanced Audio Codec
Format profile                          : LC
Codec ID                                : 40
Duration                                : 22mn 40s
Bit rate mode                            : Variable
Bit rate                                : 185 Kbps
Maximum bit rate                        : 223 Kbps
Channel(s)                              : 2 channels
Channel positions                        : Front: L R
Sampling rate                            : 44.1 KHz
Compression mode                        : Lossy
Stream size                              : 30.0 MiB (3%)
Encoded date                            : UTC 2014-05-14 11:01:29
Tagged date                              : UTC 2014-05-14 11:01:30

sd039_stefannash_alexcox_1080p.mp4 1.04 GB Video
sd039_stefannash_alexcox.zip 21.10 MB Photographs Zipped


Added2014-05-30 11:03:27
Size1.06 GB (1,135,181,709 bytes)
Views0
Num files2 files
Pictures