[MEN] [Big Dicks At School] My First Fantasy [Brad Kalvo and Tyler Morgan] [1080p]

CategoryDaddies / Sons
Download
You need to Login or Signup first.
Description[MEN] [Big Dicks At School] My First Fantasy [Brad Kalvo and Tyler Morgan] [1080p]

Media Info.

Format                                  : MPEG-4
Format profile                          : Base Media
Codec ID                                : isom
File size                                : 1.59 GiB
Duration                                : 21mn 35s
Overall bit rate                        : 10.5 Mbps
Writing application                      : Lavf55.3.100

Video
ID                                      : 1
Format                                  : AVC
Format/Info                              : Advanced Video Codec
Format profile                          : High@L4.1
Format settings, CABAC                  : Yes
Format settings, ReFrames                : 5 frames
Codec ID                                : avc1
Codec ID/Info                            : Advanced Video Coding
Duration                                : 21mn 35s
Bit rate                                : 10 000 Kbps
Width                                    : 1 920 pixels
Height                                  : 1 080 pixels
Display aspect ratio                    : 16:9
Frame rate mode                          : Constant
Frame rate                              : 29.970 fps
Color space                              : YUV
Chroma subsampling                      : 4:2:0
Bit depth                                : 8 bits
Scan type                                : Progressive
Bits/(Pixel*Frame)                      : 0.161
Stream size                              : 1.51 GiB (95%)
Writing library                          : x264 core 132 r2309 3b1f1f7
Encoding settings                        : cabac=1 / ref=5 / deblock=1:0:0 / analyse=0x3:0x113 / me=umh / subme=8 / psy=1 / psy_rd=1.00:0.00 / mixed_ref=1 / me_range=16 / chroma_me=1 / trellis=1 / 8x8dct=1 / cqm=0 / deadzone=21,11 / fast_pskip=1 / chroma_qp_offset=-2 / threads=24 / lookahead_threads=4 / sliced_threads=0 / nr=0 / decimate=1 / interlaced=0 / bluray_compat=0 / constrained_intra=0 / bframes=3 / b_pyramid=2 / b_adapt=2 / b_bias=0 / direct=3 / weightb=1 / open_gop=0 / weightp=2 / keyint=60 / keyint_min=6 / scenecut=40 / intra_refresh=0 / rc_lookahead=50 / rc=abr / mbtree=1 / bitrate=10000 / ratetol=1.0 / qcomp=0.60 / qpmin=0 / qpmax=69 / qpstep=4 / ip_ratio=1.40 / aq=1:1.00
Language                                : English
Tagged date                              : UTC 2014-05-15 03:16:00

Audio
ID                                      : 2
Format                                  : AAC
Format/Info                              : Advanced Audio Codec
Format profile                          : LC
Codec ID                                : 40
Duration                                : 21mn 35s
Duration_LastFrame                      : -9ms
Bit rate mode                            : Constant
Bit rate                                : 128 Kbps
Channel(s)                              : 2 channels
Channel positions                        : Front: L R
Sampling rate                            : 48.0 KHz
Compression mode                        : Lossy
Stream size                              : 19.8 MiB (1%)
Language                                : English
Tagged date                              : UTC 2014-05-15 03:16:00

Other #1
ID                                      : 65536
Type                                    : Hint
Format                                  : RTP
Codec ID                                : rtp
Duration                                : 21mn 35s
Encoded date                            : UTC 2014-05-15 03:15:52
Tagged date                              : UTC 2014-05-15 03:16:00

Other #2
ID                                      : 65537
Type                                    : Hint
Format                                  : RTP
Codec ID                                : rtp
Duration                                : 21mn 35s
Encoded date                            : UTC 2014-05-15 03:15:59
Tagged date                              : UTC 2014-05-15 03:16:00
Bit rate mode                            : VBR


Added2015-02-22 14:52:20
Size1.59 GB (1,707,932,778 bytes)
Views9
Num files1 files
Pictures