♺ Iron Horse - Gay For Pay

CategoryBears
Download
You need to Login or Signup first.
DescriptionOriginal upload: 2010-10-20 |
DVD Rip from original disc via Megui. Enjoy :)
It took some time, if there are some seedbonus that always be good :p

==========================
General
Complete name                    : Y:\Download\Gay For Pay\Iron Horse.Gay.For.Pay.1998.DVDrip.x264.AAC.mp4
Format                          : MPEG-4
Format profile                  : Apple iPhone
Codec ID                        : M4VP
File size                        : 1.46 GiB
Duration                        : 1h 18mn
Overall bit rate                : 2 665 Kbps
Encoded date                    : UTC 2010-10-17 19:22:35
Tagged date                      : UTC 2010-10-17 19:22:35

Video
ID                              : 1
Format                          : AVC
Format/Info                      : Advanced Video Codec
Format profile                  : Main@L3.0
Format settings, CABAC          : Yes
Format settings, ReFrames        : 4 frames
Codec ID                        : avc1
Codec ID/Info                    : Advanced Video Coding
Duration                        : 1h 18mn
Bit rate mode                    : Variable
Bit rate                        : 2 469 Kbps
Maximum bit rate                : 4 949 Kbps
Width                            : 640 pixels
Height                          : 480 pixels
Display aspect ratio            : 4:3
Frame rate mode                  : Constant
Frame rate                      : 29.970 fps
Color space                      : YUV
Chroma subsampling              : 4:2:0
Bit depth                        : 8 bits
Scan type                        : Progressive
Bits/(Pixel*Frame)              : 0.268
Stream size                      : 1.35 GiB (93%)
Title                            : Imported with GPAC 0.4.6-DEV (internal rev. 5)
Writing library                  : x264 core 98 r1649 20cbe10
Encoding settings                : cabac=1 / ref=3 / deblock=1:0:0 / analyse=0x1:0x111 / me=hex / subme=7 / psy=1 / psy_rd=1.00:0.00 / mixed_ref=1 / me_range=16 / chroma_me=1 / trellis=1 / 8x8dct=0 / cqm=0 / deadzone=21,11 / fast_pskip=1 / chroma_qp_offset=-2 / threads=6 / sliced_threads=0 / nr=0 / decimate=1 / interlaced=0 / constrained_intra=0 / bframes=3 / b_pyramid=2 / b_adapt=1 / b_bias=0 / direct=1 / weightb=1 / weightp=2 / keyint=250 / keyint_min=25 / scenecut=40 / intra_refresh=0 / rc_lookahead=40 / rc=2pass / mbtree=1 / bitrate=2469 / ratetol=1.0 / qcomp=0.60 / qpmin=10 / qpmax=51 / qpstep=4 / cplxblur=20.0 / qblur=0.5 / vbv_maxrate=10000 / vbv_bufsize=10000 / ip_ratio=1.40 / aq=1:1.00 / nal_hrd=none
Encoded date                    : UTC 2010-10-17 19:22:35
Tagged date                      : UTC 2010-10-17 19:23:45

Audio
ID                              : 2
Format                          : AAC
Format/Info                      : Advanced Audio Codec
Format version                  : Version 4
Format profile                  : LC
Format settings, SBR            : No
Codec ID                        : 40
Duration                        : 1h 18mn
Bit rate mode                    : Variable
Bit rate                        : 192 Kbps
Maximum bit rate                : 228 Kbps
Channel(s)                      : 2 channels
Channel positions                : Front: L R
Sampling rate                    : 48.0 KHz
Stream size                      : 107 MiB (7%)
Encoded date                    : UTC 2010-10-17 19:23:39
Tagged date                      : UTC 2010-10-17 19:23:45
Added2015-09-07 16:03:10
Size1.46 GB (1,564,464,408 bytes)
Views4635
Num files5 files
Pictures