♺ First Auditions - Australia (avi)

CategorySolo
Download
You need to Login or Signup first.
DescriptionOriginal upload: 2011-04-10 |
-----

Some of these guys auditioning for supposedly straight porn are seriously good looking.

Description:

Reluctant newcomer convinced to show his ass:
"Don't worry. All models have to show it." That's what he's told anyway. The mean heterosexual grips his big muscular cheeks and reluctantly yanks them apart to reveal his hidden part like a horny bitch.

19 year old innocent forced to display his hole:
It's a laugh for this smug little shitbag, but when he's buck naked on the table with his most private parts on full show he stops laughing. The moron will do anything with the promise of bags of money and hot porn girls to screw.

Dumb hard muscleman covers himself in jizz:
He thought this was going to only be a verbal interview. But when told he should show the goods or get out, he slips off his clothes and agrees to ejaculate on camera. Fresh, raw and never before filmed naked!

Professional swimmer loves stroking it on camera:
Desperate to prove that he has what it takes to make it, this young athlete gives it all he has pumping his fine hard cock to orgasm. There's no doubt this boy discovers he was "born to do it" when his spunk flies clear across the room!

Hard-as-nails straight builder sprays his seed:
This smooth blue-collar worker is so desperate for sex he agrees to flash his butthole and pump his rampant cock while standing right over me! The shower that ensues proves this perpetually horny stud is a non-stop cum-factory.

Enjoy the show!


Format                          : AVI
Format/Info                      : Audio Video Interleave
File size                        : 1.54 GiB
Duration                        : 2h 9mn
Overall bit rate                : 1 706 Kbps

Video
ID                              : 0
Format                          : MPEG-4 Visual
Format profile                  : Simple@L1
Format settings, BVOP            : No
Format settings, QPel            : No
Format settings, GMC            : No warppoints
Format settings, Matrix          : Default (H.263)
Codec ID                        : DIVX
Codec ID/Info                    : Project Mayo
Codec ID/Hint                    : DivX 4
Duration                        : 2h 9mn
Bit rate                        : 1 500 Kbps
Width                            : 720 pixels
Height                          : 480 pixels
Display aspect ratio            : 3:2
Frame rate                      : 29.970 fps
Standard                        : NTSC
Color space                      : YUV
Chroma subsampling              : 4:2:0
Bit depth                        : 8 bits
Scan type                        : Progressive
Compression mode                : Lossy
Bits/(Pixel*Frame)              : 0.145
Stream size                      : 1.35 GiB (88%)
Writing library                  : avc2.0.11.1110

Audio
ID                              : 1
Format                          : MPEG Audio
Format version                  : Version 1
Format profile                  : Layer 3
Mode                            : Joint stereo
Mode extension                  : MS Stereo
Codec ID                        : 55
Codec ID/Hint                    : MP3
Duration                        : 2h 9mn
Bit rate mode                    : Constant
Bit rate                        : 192 Kbps
Channel(s)                      : 2 channels
Sampling rate                    : 48.0 KHz
Compression mode                : Lossy
Stream size                      : 177 MiB (11%)
Alignment                        : Aligned on interleaves
Interleave, duration            : 24 ms (0.72 video frame)

Added2016-07-01 06:44:53
Size1.54 GB (1,656,203,840 bytes)
Views2991
Num files36 files
Pictures