♺ Japanboyz - Tokyo Twink Sex Party - 720p - NO mask - Uncensored

CategoryAsian
Download
You need to Login or Signup first.
DescriptionOriginal upload: 2014-11-16 |
Shota and Takuya are two hot Japanese college students that are horny as hell for each other. Shota (the light skin Asian boy from Kyushu) could barely wait to get his hands on Takuya (the dark skinned boy from Kanagawa), and quickly started passionately licking and kissing him all over. Both of the gay Asian boys in this gay Japanese sex video were so horny for each other that the lovemaking looks completely natural and unstaged. Once Shota started fingering Takuya’s tight butthole, he couldn’t wait to thrust his cock inside inside it, and soon started fucking this sweet 18 year old twink’s beautiful butt harder and harder. After pounding him on his back, he told Takuya to get on top and ride his sweet dick, and ride it he did as Takuya’s own hard cock flopped up and down. This is one hot Japanese twink fuck you don’t want to miss !!!

[General] Complete name : Japanboyz - Tokyo Twink Fuck Party - 720p.wmv
Format : Windows Media
File size : 435 MiB
Duration : 11mn 48s
Overall bit rate mode : Variable
Overall bit rate : 5 157 Kbps
Maximum Overall bit rate : 5 375 Kbps
Encoded date : UTC 2010-12-25 09:32:11.750

[Video] ID : 2
Format : VC-1
Format profile : MP@HL
Codec ID : WMV3
Codec ID/Info : Windows Media Video 9
Codec ID/Hint : WMV3
Description of the codec : Windows Media Video 9 - Professional
Duration : 11mn 48s
Bit rate mode : Variable
Bit rate : 5 000 Kbps
Width : 1 280 pixels
Height : 720 pixels
Display aspect ratio : 16:9
Frame rate : 25.000 fps
Color space : YUV
Chroma subsampling : 4:2:0
Bit depth : 8 bits
Scan type : Progressive
Compression mode : Lossy
Bits/(Pixel*Frame) : 0.217
Stream size : 422 MiB (97%)
Language : English (US)

[Audio] ID : 1
Format : WMA
Format version : Version 2
Codec ID : 161
Codec ID/Info : Windows Media Audio
Description of the codec : Windows Media Audio 9.2 - 128 kbps, 48 kHz, stereo 2-pass VBR
Duration : 11mn 48s
Bit rate mode : Variable
Bit rate : 127 Kbps
Channel count : 2 channels
Sampling rate : 48.0 KHz
Bit depth : 16 bits
Stream size : 10.7 MiB (2%)
Language : English (US)

Added2015-10-29 03:24:30
Size437.15 MB (458,387,580 bytes)
Views46
Num files3 files
Pictures