Taken down by DMCA request

Falcon Studios - The Other Side of Aspen VI - A New Beginning (2011)

You need to Login or Signup first.
Description"Falcon Studios returns to the top with The Other Side of Aspen VI. With each installment of the Aspen series, Falcon shows off the hottest of its current collection of world-class stars and sexy newcomers, and Aspen VI is no exception - it gives a new definition to snow plowing by bringing scene after scene of hot play in the cold winter landscape.

Aspen is known for its majestic, snow-topped mountains and beautiful pristine landscapes, where the rich and famous escape to a cold winter wonderland. The Other Side of Aspen is sometimes hidden. It's where majestic cocks and pristine bubble-butts meet to heat up the chilly weather and give you an up-close-and-intimate view of what happens when eleven of porn's hottest studs meet in the mountains.

Landon Conrad is asked by his sexy friends to watch over their Aspen house while they take a trip to Mexico to avoid the snow. Landon agrees, and with a spacious Aspen getaway all to himself he decides to invite all his buddies over for a sex party. Filmed entirely on location, the two-hour and forty-six minute movie features a huge ten-man orgy, nine long scenes, lots of big dicks and hours of quality fucking.

This two disc set features a full documentary on the history of the Aspen series, including legendary directors Steven Scarborough and John Rutherford offering interesting insights into the history of Falcon. You also get three bonus all-oral scenes - instead of the usual solos - complete with six more cum shots. As an additional bonus Falcon went back thru the first five Aspen movies and selected the best scene from each movie and included it in full on the bonus disc. Altogether there are dozens of men, seventeen scenes and hours of viewing pleasure. The Other Side of Aspen VI is the gay porn event of the year."

Cast:  Landon Conrad, Roman Heart, Adam Killian, Angelo Marconi, Brandon Bangs, Cameron Adams, Colby Keller, Gavin Waters, Heath Jordan, Shane Frost, Tony Buff

Runtime: 2:46:59

Tags: hunks, big cocks, threesome, group sex, orgy, oral, blowjob, anal, condom, vintage

Codec Information:

Format                                  : Windows Media
File size                                : 1.51 GiB
Duration                                : 2h 46mn
Overall bit rate mode                    : Constant
Overall bit rate                        : 1 297 Kbps
Maximum Overall bit rate                : 1 310 Kbps
Encoded date                            : UTC 2011-05-14 05:59:51.902

ID                                      : 2
Format                                  : VC-1
Format profile                          : MP@ML
Codec ID                                : WMV3
Codec ID/Info                            : Windows Media Video 9
Codec ID/Hint                            : WMV3
Description of the codec                : Windows Media Video 9
Duration                                : 2h 46mn
Bit rate mode                            : Constant
Bit rate                                : 1 200 Kbps
Width                                    : 640 pixels
Height                                  : 360 pixels
Display aspect ratio                    : 16:9
Frame rate                              : 29.970 fps
Color space                              : YUV
Chroma subsampling                      : 4:2:0
Bit depth                                : 8 bits
Scan type                                : Progressive
Compression mode                        : Lossy
Bits/(Pixel*Frame)                      : 0.174
Stream size                              : 1.40 GiB (92%)
Language                                : English (US)

ID                                      : 1
Format                                  : WMA
Format version                          : Version 2
Codec ID                                : 161
Codec ID/Info                            : Windows Media Audio
Description of the codec                : Windows Media Audio 9.2 -  96 kbps, 44 kHz, stereo (A/V) 1-pass CBR
Duration                                : 2h 46mn
Bit rate mode                            : Constant
Bit rate                                : 96.0 Kbps
Channel count                            : 2 channels
Sampling rate                            : 44.1 KHz
Bit depth                                : 16 bits
Stream size                              : 115 MiB (7%)
Language                                : English (US)

Enjoy :)
Added2014-06-08 08:18:50
Size1.51 GB (1,624,769,495 bytes)
Num files1 files