[GayAsianTwinkz] Str8 Pinoy Niko Fucks Hot Bottom mp4

CategoryAsian
Download
You need to Login or Signup first.
DescriptionOur cute and sexy str8 Pinoy boy Niko is back for some more money boy Asian gay sex action with our versatile gay Pinoy hotty Hermis. Niko loves money, and obviously he’ll do anything for it. So we thought it would be a hot scene to put these two muscle toned studs together. The Asian boys do some ass rimming and cock sucking to stimulate some boners, then get right to the anal sex. Niko fucks Hermis until his gay bottom boy shoots a massive cum shot on his sexy smooth chest until it pools in the middle between his gorgeous pectorals. Then Niko wanks out his jizz on Hermis’ face.

General
Complete name : [GayAsianTwinkz] Str8 Pinoy Niko Fucks Hot Bottom.mp4
Format : MPEG-4
Format profile : Base Media
Codec ID : isom (isom/iso2/avc1/mp41)
File size : 1.06 GiB
Duration : 20mn 45s
Overall bit rate : 7 300 Kbps
Writing application : Lavf56.15.102

Video
ID : 1
Format : AVC
Format/Info : Advanced Video Codec
Format profile : High@L5
Format settings, CABAC : Yes
Format settings, ReFrames : 5 frames
Codec ID : avc1
Codec ID/Info : Advanced Video Coding
Duration : 20mn 45s
Bit rate : 7 163 Kbps
Width : 1 920 pixels
Height : 1 080 pixels
Display aspect ratio : 16:9
Frame rate mode : Constant
Frame rate : 29.970 (30000/1001) fps
Color space : YUV
Chroma subsampling : 4:2:0
Bit depth : 8 bits
Scan type : Progressive
Bits/(Pixel*Frame) : 0.115
Stream size : 1.04 GiB (98%)
Writing library : x264 core 144 r96 40bb568
Encoding settings : cabac=1 / ref=5 / deblock=1:0:0 / analyse=0x3:0x113 / me=umh / subme=8 / psy=1 / psy_rd=1.00:0.00 / mixed_ref=1 / me_range=16 / chroma_me=1 / trellis=1 / 8x8dct=1 / cqm=0 / deadzone=21,11 / fast_pskip=1 / chroma_qp_offset=-2 / threads=21 / lookahead_threads=3 / sliced_threads=0 / nr=0 / decimate=1 / interlaced=0 / bluray_compat=0 / constrained_intra=0 / bframes=3 / b_pyramid=2 / b_adapt=2 / b_bias=0 / direct=3 / weightb=1 / open_gop=0 / weightp=2 / keyint=250 / keyint_min=25 / scenecut=40 / intra_refresh=0 / rc_lookahead=50 / rc=crf / mbtree=1 / crf=18.0 / qcomp=0.60 / qpmin=0 / qpmax=69 / qpstep=4 / ip_ratio=1.40 / aq=1:1.00
Language : English

Audio
ID : 2
Format : AAC
Format/Info : Advanced Audio Codec
Format profile : LC
Codec ID : 40
Duration : 20mn 45s
Bit rate mode : Constant
Bit rate : 128 Kbps
Channel(s) : 2 channels
Channel positions : Front: L R
Sampling rate : 48.0 KHz
Frame rate : 46.875 fps (1024 spf)
Compression mode : Lossy
Stream size : 19.0 MiB (2%)
Language : English
Default : Yes
Alternate group : 1

Added2016-08-13 03:17:59
Size1.06 GB (1,137,382,082 bytes)
Views337
Num files2 files
Pictures