♺ Defiant - Just Fucking Around

CategoryYoungblood
Download
You need to Login or Signup first.
DescriptionOriginal upload: 2011-04-14 |
With nothing better to do, why not "hang" with your best bud. If you are going to hang with your best bud, why not Fuck around a little...or a LOT !

Details
Shane and Austin
Shane needs a blowjob, and Austin's the man to give one. This is Austin's first time on film, and he's eager to please Shane's hard cock. He pulls out Shane's cock and takes it all into his mouth. "This is pretty good," Shane moans. Shane shoots a load in Austin's mouth. Cums dribbles from his lips.

Apollo and Tag
Apollo and Tag watch some porn, and Apollo leans over to give Tag some head. Tag jerks off Apollo ... it looks like this straight boy wants to give Apollo some head, but instead he just licks Apollo's cock while jerking him off. Apollo gives Tag a rim job, and Tag eventually gives in to his curiosity. He sucks Apollo's cock.

Ricky and Aaron
Ricky and Aaron make out in bed, and Aaron goes right for Ricky's cock. Ricky returns the favor, and the two boys exchange blowjobs. Ricky gives Aaron a rim job, and Aaron licks Ricky's asshole, too. Aaron slides his cock inside Ricky's ass, but it looks like it hurts too much. The two jerk off next to each other in bed.

Brock and Silver
This is Silver's first time fooling around with a guy, but he's eager to please. Brock and Silver take turns sucking each other's cocks. They jerk off side-by-side. Silver can't hold it anymore, and he shoots a load on his tummy. Brock shoots a hot load, and he hits himself in the face.

Shane and Austin -- part two
Shane wants to return the favor and give Austin a blowjob, but Austin really wants Shane's cock in his mouth again. The boys give each other some really good head. Austin busts his load while jerking his cock with Shane's dick in his mouth. Shane lays down and shoots a load all over his own face.

Roar and Bama
Bama is a straight boy, and this is his first time fooling around with a gay gay. He seems a little hesitant, but he also seems to enjoy Roar's lips around his cock. Bama kisses Roar, and he doesn't seem to mind that either. Once these two get going, it's hard to tell Bama is straight. (Watch him shoot his load.) Afterwards, we learn that Bama had a lot more fun that he expected to have.

Brock and Law
Brock invites Law (a boy he met on the street) to join him for some fun. The two watch a porn together, and they have fun trading blowjobs. Law is straight, but that's sorta hard to tell judging by how much he enjoys sucking cock. He talks to the camera alot, asking us if we like watching a straight boy suck a dick. We do.


Enjoy the show!

Format                          : AVI
Format/Info                      : Audio Video Interleave
File size                        : 1.12 GiB
Duration                        : 2h 0mn
Overall bit rate                : 1 339 Kbps

Video
ID                              : 0
Format                          : MPEG-4 Visual
Format settings, BVOP            : 1
Format settings, QPel            : No
Format settings, GMC            : No warppoints
Format settings, Matrix          : Default (H.263)
Muxing mode                      : Packed bitstream
Codec ID                        : DX50
Codec ID/Hint                    : DivX 5
Duration                        : 2h 0mn
Bit rate                        : 1 194 Kbps
Width                            : 656 pixels
Height                          : 480 pixels
Display aspect ratio            : 4:3
Frame rate                      : 29.970 fps
Color space                      : YUV
Chroma subsampling              : 4:2:0
Bit depth                        : 8 bits
Scan type                        : Progressive
Compression mode                : Lossy
Bits/(Pixel*Frame)              : 0.127
Stream size                      : 1.00 GiB (89%)
Title                            : Video
Writing library                  : DivX 5.2.1 Alpha (UTC 2004-09-08)

Audio
ID                              : 1
Format                          : MPEG Audio
Format version                  : Version 1
Format profile                  : Layer 3
Mode                            : Joint stereo
Mode extension                  : MS Stereo
Codec ID                        : 55
Codec ID/Hint                    : MP3
Duration                        : 2h 0mn
Bit rate mode                    : Variable
Bit rate                        : 128 Kbps
Channel(s)                      : 2 channels
Sampling rate                    : 44.1 KHz
Compression mode                : Lossy
Stream size                      : 113 MiB (10%)
Alignment                        : Aligned on interleaves
Interleave, duration            : 26 ms (0.78 video frame)
Interleave, preload duration    : 443 ms
Title                            : Audio



Added2016-04-04 07:08:05
Size1.13 GB (1,218,641,654 bytes)
Views2313
Num files27 files
Pictures