♺ FLW - Mixxxed Nuts HQ

CategoryBlack
Download
You need to Login or Signup first.
DescriptionOriginal upload: 2011-04-13 |
This is a HQ version of Mixxxed Nuts, which was an instant classic when it was released. And, yes, it features my fantasy husband DeAngelo;-)

Description: Mixed nuts is completely about variety check the latest guys in nuts black on clean and white on black! These ain't your average supermarket nuts - these nuts are tasty as fuck! pure interracial fuck action that will have you begging in opposition to more as these studs use their tongues, cocks and fingers to perform the duties of asses and mouths with the of their warm, hot loads from their unkind pulsing cocks! Cum watch these studs offer up their tender asses and fulfill their sexual desires until they're sated!

Scene 1: Cody Kyler, DeAngelo Jackson
Scene 2: Mr. Saukei, Tony Michaels
Scene 3: Anubis, Brian Werner
Scene 4: Indy, Tony Michaels
Scene 5: Cody Kyler, DeAngelo Jackson, Jules

STARRING:
Anubis, Brian Werner, Cody Kyler, DeAngelo Jackson, Indy, Jules, Mr. Saukei, Tony Michaels

DIRECTED BY: Keith Kannon
RUNNING TIME: 1hour 47min. (107min.)
THEMES: Anal Sex, Black Men, Facials, Interracial Sex, Story / Plot, Threesomes, Twinks


Enjoy the show!


Format                          : Windows Media
File size                        : 2.95 GiB
Duration                        : 1h 46mn
Overall bit rate mode            : Constant
Overall bit rate                : 3 967 Kbps
Maximum Overall bit rate        : 3 968 Kbps
Rating                          : Adults Only

Video
ID                              : 2
Format                          : VC-1
Format profile                  : AP@L1
Codec ID                        : WVC1
Codec ID/Hint                    : Microsoft
Description of the codec        : VC-1 - Advanced Profile (WVC1)
Duration                        : 1h 46mn
Bit rate mode                    : Constant
Bit rate                        : 3 700 Kbps
Width                            : 848 pixels
Height                          : 480 pixels
Display aspect ratio            : 16:9
Frame rate                      : 29.970 fps
Chroma subsampling              : 4:2:0
Bit depth                        : 8 bits
Scan type                        : Progressive
Compression mode                : Lossy
Bits/(Pixel*Frame)              : 0.303
Stream size                      : 2.76 GiB (93%)
Language                        : English (US)

Audio
ID                              : 1
Format                          : WMA
Format version                  : Version 2
Codec ID                        : 161
Codec ID/Info                    : Windows Media Audio
Description of the codec        : Windows Media Audio 9.2 - 256 kbps, 44 kHz, stereo (A/V) 1-pass CBR
Duration                        : 1h 46mn
Bit rate mode                    : Constant
Bit rate                        : 256 Kbps
Channel(s)                      : 2 channels
Sampling rate                    : 44.1 KHz
Bit depth                        : 16 bits
Stream size                      : 195 MiB (6%)
Language                        : English (US)

Added2016-10-01 13:01:06
Size2.96 GB (3,173,581,973 bytes)
Views2404
Num files31 files
Pictures