♺ Third World Media - Tight Asian Manholes (avi)

You need to Login or Signup first.
DescriptionOriginal upload: 2009-12-08 |

Third World Media packs this movie with a lot of punch - 2½ hours of hardcore authentic interracial (White on Asian) gay action.  This is very rare and very hard to shoot footage... enjoy!

Naturally, bonus points are always gratefully accepted, sorely needed, and greatly appreciated!  ;P

Title: Tight Asian Manholes 1

Year Released: 2006

Duration: 2 hours 35 minutes

Country:  Thailand

Studio:  Third World Media

Cast:  Oil, Allan, Gai, James, Oh, Tick

Director:  Dimitri Wolfe

From the press notes, courtesy of Third World Media:
"Third World Media is very proud to present it is first gay title: Tight Asian Manholes. It features fresh new faces shot on location in Asia. James and Allan are having the time of their lives in Thailand. Anything goes for these two lucky white boys, as they decide to take on the gay scene in Pattaya. Allan first meets Gai, who moonlights as a go-go dancer in Boyztown. He takes his handsome "Thai Gai" back to the room for some mutual sucking before a good and hard ass fucking. Allan unloads his Falang sperm in Gai's willing mouth to end their special time together.

James likes a Thai oil massage to unwind, and it just so happens his masseuse this time is named Oil. They never even make it to the massage table before James takes little Oil and "oils" him up for a hard ass pounding in the shower, on the toilet and the bathroom floor. James splatters Oil's face full of cum before Oil dribbles some on himself - totally relieved to be done with another hard day work.

Allan is back out to take in some Thai kickboxing. Tick is one hard-ass kicker in the ring but does not seem to mind a good ass pounding in the sack. Allan gives this tough guy the ten-count after fucking him every which way all over his room.

Allan is crazy and just cannot stop fucking Thai boys! Oh is his last target after Allan spots him shakin' his thang in an outdoor cabaret. Allan barely touches his lips on Oh's cock as Oh erupts with pleasure. Oh loves white men and Allan has a lot for him to enjoy. Oh loved the nice, white creamy souvenir that Allan left him all over his face.

There are bonus scenes included as well, for three of the guys."

KEYWORDS:  Age: Barely Legal/Twinks/Young Meat,  Bathhouse/Sauna/Shower Sex,  Body Types: Average/Regular Build,  Body Types: Lean/Slim/Wiry,  Body/Chest Hair: Hairy and Smooth Guys Together,  Body/Chest Hair: None (Hairless/Shaved/Smooth),  Butt Play: Finger Fucking/Probing,  Cast's Looks: Adorable/Cute,  Cast's Looks: Average Looking/Everyday,  Cock Sizes: Average/Above Average,  Cock Sizes: Big and Thick,  Cumshots: Facial/To the Face,  Cumshots: Oral/Swallowing,  Deep Throating/Gagging,  Dirty Talk/Verbal Abuse,  Facial Hair: Five-O-Clock Shadow/Scruff,  Facial Hair: None (Clean Shaven),  Fetish: Foot Worship/Shrimping,  Foreskin Play/Uncut Cocks,  Frottaging/Groping/Rubbing,  Go-Go Boys/Strippers,  Hair Style: Guys with Long Hair,  Interracial Sex,  Jerking Off/Masturbation/Solo (Some),  Massage/Muscle Worship,  Men in/of Thailand,  Rough Sex ('Take it, bitch!'),  Sex On/Around the Toilet,  Tattoos: Few/Moderate

GENRES:  Foreign/International Cast,  Twinks

Technical Information:
Complete name : Third World Media - Tight Asian Manholes 1.avi
Format : AVI
Format/Info : Audio Video Interleave
File size : 1.46 GiB
Duration : 2h 35mn
Overall bit rate : 1 347 Kbps
Writing application : VirtualDubMod (build 2178/release)
Writing library : VirtualDubMod build 2178/release

Video  Format : MPEG-4 Visual
Format settings, BVOP : Yes
Format settings, QPel : No
Format settings, GMC : No warppoints
Format settings, Matrix : Default (H.263)
Muxing mode : Packed bitstream
Codec ID : DX50
Codec ID/Hint : DivX 5
Duration : 2h 35mn
Bit rate : 1 210 Kbps
Width : 640 pixels
Height : 480 pixels
Display aspect ratio : 4/3
Frame rate : 29.970 fps
Resolution : 24 bits
Colorimetry : 4:2:0
Scan type : Progressive
Bits/(Pixel*Frame) : 0.131
Stream size : 1.31 GiB (90%)
Writing library : DivX 5.2.1 (DrDivX 106) (UTC 2004-09-08)

Audio  Format : MPEG Audio
Format version : Version 1
Format profile : Layer 3
Codec ID : 55
Codec ID/Hint : MP3
Duration : 2h 35mn
Bit rate mode : Constant
Bit rate : 128 Kbps
Channel(s) : 2 channels
Sampling rate : 48.0 KHz
Resolution : 16 bits
Stream size : 142 MiB (10%)
Alignment : Aligned on interleaves
Interleave, duration : 67 ms (2.00 video frames)
Interleave, preload duration : 504 ms
Writing library : LAME3.96r
Encoding settings : -m j -V 4 -q 2 -lowpass 17.5 -b 128
Added2015-01-17 09:05:05
Size1.46 GB (1,566,347,264 bytes)
Num files1 files