Taken down by DMCA request

BBB - Mark bangs Evan - 720p

CategoryTwinks
Download
You need to Login or Signup first.
DescriptionMark is sitting on the couch when Evan walks in the room in his red speedos - his erect cock just busting to get out of his tight swimwear. Mark is only to happy to get that cock in his mouth and sucks that thing like a pro with Evan straddled in various positions over him. Evan then returns the favour and also rims Mark's hole til Mark's big ...

Categories: Anal, Oral, Rimming, Videos, Latin, Big Cocks, Smooth, Speedo, Twinks

Featuring: Mark, Evan
Released: Apr 3, 2014
Duration: 22 Minutes

==========Technical Info===============
[General] Complete name : BBB-Mark-Evan.mp4
Format : MPEG-4
Format profile : Base Media
Codec ID : isom
File size : 415 MiB
Duration : 22mn 9s
Overall bit rate mode : Variable
Overall bit rate : 2 622 Kbps
Movie name : BBB-Mark-Evan.mp4
Recorded date : 0
Writing application : Lavf52.93.0
Xtra : WM/Category

[Video] ID : 1
Format : MPEG-4 Visual
Format profile : Simple@L1
Format settings, BVOP : No
Format settings, QPel : No
Format settings, GMC : No warppoints
Format settings, Matrix : Default (H.263)
Codec ID : 20
Duration : 22mn 9s
Bit rate : 2 500 Kbps
Width : 1 280 pixels
Height : 720 pixels
Display aspect ratio : 16:9
Frame rate mode : Constant
Frame rate : 25.000 fps
Color space : YUV
Chroma subsampling : 4:2:0
Bit depth : 8 bits
Scan type : Progressive
Compression mode : Lossy
Bits/(Pixel*Frame) : 0.109
Stream size : 396 MiB (95%)
Writing library : Lavc52.108.0

[Audio] ID : 2
Format : AAC
Format/Info : Advanced Audio Codec
Format profile : LC
Codec ID : 40
Duration : 22mn 8s
Bit rate mode : Variable
Bit rate : 117 Kbps
Channel count : 2 channels
Channel positions : Front: L R
Sampling rate : 48.0 KHz
Compression mode : Lossy
Stream size : 18.5 MiB (4%)
Added2014-06-03 17:24:43
Size434.89 MB (456,010,248 bytes)
Views2
Num files60 files
Pictures