♺ XOffender - Sleaze MP4

CategoryFetish
Download
You need to Login or Signup first.
DescriptionOriginal upload: 2012-04-22 |
Rip from DVD original disk.
MP4, Available for iOS. Enjoy :)
Welcome back!!!!!!!!!!!!!!!!!!!!!!!!!!!!!!

========================
Step inside one of London's oldest cruising joints, where nine horny leather studs are out and looking for trouble. Shot in an edgy, voyeuristic style, X Offender's premier production takes its audience on a seedy excursion through the sexual underground.
========================

General
Complete name                  : X:\Video\G.V\X-Offender.2008.Sleaze.DVD.AAC.x264-ZH\X-Offender.2008.Sleaze.DVD.AAC.x264-ZH.mp4
Format                        : MPEG-4
Format profile                : Apple iPhone
Codec ID                      : M4VP
File size                      : 2.12 GiB
Duration                      : 1h 41mn
Overall bit rate mode          : Variable
Overall bit rate              : 3 001 Kbps
Encoded date                  : UTC 2012-03-15 15:07:21
Tagged date                    : UTC 2012-03-15 15:07:21

Video
ID                            : 1
Format                        : AVC
Format/Info                    : Advanced Video Codec
Format profile                : High@L4.1
Format settings, CABAC        : Yes
Format settings, ReFrames      : 3 frames
Codec ID                      : avc1
Codec ID/Info                  : Advanced Video Coding
Duration                      : 1h 41mn
Bit rate mode                  : Variable
Bit rate                      : 2 742 Kbps
Maximum bit rate              : 14.0 Mbps
Width                          : 720 pixels
Height                        : 400 pixels
Display aspect ratio          : 16:9
Frame rate mode                : Constant
Frame rate                    : 29.970 fps
Color space                    : YUV
Chroma subsampling            : 4:2:0
Bit depth                      : 8 bits
Scan type                      : Progressive
Bits/(Pixel*Frame)            : 0.318
Stream size                    : 1.94 GiB (91%)
Writing library                : x264 core 120 r2164 da19765
Encoding settings              : cabac=1 / ref=4 / deblock=1:0:0 / analyse=0x3:0x113 / me=hex / subme=7 / psy=1 / psy_rd=1.00:0.00 / mixed_ref=1 / me_range=16 / chroma_me=1 / trellis=1 / 8x8dct=1 / cqm=0 / deadzone=21,11 / fast_pskip=1 / chroma_qp_offset=-2 / threads=6 / sliced_threads=0 / slices=4 / nr=0 / decimate=1 / interlaced=0 / bluray_compat=0 / constrained_intra=0 / bframes=3 / b_pyramid=1 / b_adapt=1 / b_bias=0 / direct=1 / weightb=1 / open_gop=0 / weightp=0 / keyint=29 / keyint_min=2 / scenecut=40 / intra_refresh=0 / rc_lookahead=31 / rc=2pass / mbtree=1 / bitrate=2742 / ratetol=1.0 / qcomp=0.60 / qpmin=10 / qpmax=51 / qpstep=4 / cplxblur=20.0 / qblur=0.5 / vbv_maxrate=14000 / vbv_bufsize=14500 / nal_hrd=vbr / ip_ratio=1.40 / aq=1:1.00
Encoded date                  : UTC 2012-03-15 15:07:21
Tagged date                    : UTC 2012-03-15 15:20:33

Audio
ID                            : 2
Format                        : AAC
Format/Info                    : Advanced Audio Codec
Format profile                : LC
Codec ID                      : 40
Duration                      : 1h 41mn
Bit rate mode                  : Variable
Bit rate                      : 256 Kbps
Maximum bit rate              : 301 Kbps
Channel(s)                    : 2 channels
Channel positions              : Front: L R
Sampling rate                  : 48.0 KHz
Compression mode              : Lossy
Stream size                    : 185 MiB (9%)
Encoded date                  : UTC 2012-03-15 15:20:16
Tagged date                    : UTC 2012-03-15 15:20:33


Added2015-05-09 12:24:06
Size2.26 GB (2,422,251,794 bytes)
Views1085
Num files30 files
Pictures