Taken down by DMCA request

DreamBoyBondage - Joshua - Heavy Lifting

CategoryBDSM
Download
You need to Login or Signup first.
DescriptionE:ELTWinter GarudEOWDreamBoyBondage - Joshua - Heavy Lifting.avi
  General
      Complete name : E:ELTWinter GarudEOWDreamBoyBondage - Joshua - Heavy Lifting.avi
      Format : AVI
      Format/Info : Audio Video Interleave
      Format profile : OpenDML
      File size : 3.82 GiB
      Duration : 1h 55mn
      Overall bit rate : 4 754 Kbps
      Writing application : MEncoder SVN-r29352(20090610-gcc4.3.3)
      Writing library : MPlayer
  Video #0
      ID : 0
      Format : AVC
      Format/Info : Advanced Video Codec
      Format profile : Baseline@L4.0
      Format settings, CABAC : No
      Format settings, ReFrames : 1 frame
      Codec ID : avc1
      Duration : 1h 55mn
      Bit rate : 4 608 Kbps
      Width : 1 280 pixels
      Height : 720 pixels
      Display aspect ratio : 16:9
      Frame rate : 29.970 fps
      Color space : YUV
      Chroma subsampling : 4:2:0
      Bit depth : 8 bits
      Scan type : Progressive
      Bits/(Pixel*Frame) : 0.167
      Stream size : 3.71 GiB (97%)
      Writing library : x264 core 67 r1163+17 7d945df
      Encoding settings : cabac=0 / ref=1 / deblock=1:0:0 / analyse=0x1:0x111 / me=hex / subme=6 / psy_rd=1.0:0.0 / mixed_ref=0 / me_range=16 / chroma_me=1 / trellis=0 / 8x8dct=0 / cqm=0 / deadzone=21,11 / chroma_qp_offset=-2 / threads=3 / nr=0 / decimate=1 / mbaff=0 / bframes=0 / keyint=250 / keyint_min=25 / scenecut=40 / rc=abr / bitrate=4608 / ratetol=1.0 / qcomp=0.60 / qpmin=10 / qpmax=51 / qpstep=4 / ip_ratio=1.40 / aq=1:1.00
  Audio #1
      ID : 1
      Format : MPEG Audio
      Format version : Version 1
      Format profile : Layer 3
      Mode : Joint stereo
      Mode extension : MS Stereo
      Codec ID : 55
      Codec ID/Hint : MP3
      Duration : 1h 55mn
      Bit rate mode : Constant
      Bit rate : 128 Kbps
      Channel(s) : 2 channels
      Sampling rate : 44.1 KHz
      Compression mode : Lossy
      Stream size : 105 MiB (3%)
      Alignment : Aligned on interleaves
      Interleave, duration : 26 ms (0.78 video frame)
      Interleave, preload duration : 522 ms
      Writing library : LAME3.98
Added2015-10-03 12:01:10
Size3.82 GB (4,102,081,216 bytes)
Views0
Num files1 files
Pictures