Black boys Martin, Marvin & Chris have 3-way bareback sex 4 1280x720p files + screen captures & thumbnails

CategoryBlack
Download
You need to Login or Signup first.
DescriptionFour Files:
martinmarvinchris1_large.mp4,
martinmarvinchris2_large.mp4,
martinmarvinchris3_large.mp4,
martinmarvinchris4_large.mp4.

Complete name: martinmarvinchris1_large.mp4
Format: MPEG-4
Format profile: Base Media / Version 2
Codec ID: mp42 (mp42/isom)
File size: 191 MiB
Duration: 7mn 30s
Overall bit rate mode: Variable
Overall bit rate: 3 554 Kbps
Encoded date: UTC 2012-10-18 08:26:05
Tagged date: UTC 2012-10-18 08:26:05

Video
ID: 2
Format: AVC
Format/Info: Advanced Video Codec
Format profile: High@L4
Format settings, CABAC: Yes
Format settings, ReFrames: 2 frames
Muxing mode: Container profile=Baseline@3.1
Codec ID: avc1
Codec ID/Info: Advanced Video Coding
Duration: 7mn 30s
Bit rate mode: Variable
Bit rate: 3 420 Kbps
Maximum bit rate: 4 000 Kbps
Width: 1 280 pixels
Height: 720 pixels
Display aspect ratio: 16:9
Frame rate mode: Constant
Frame rate: 23.976 (24000/1001) fps
Color space: YUV
Chroma subsampling: 4:2:0
Bit depth: 8 bits
Scan type: Progressive
Bits/(Pixel*Frame): 0.155
Stream size: 184 MiB (96%)
Language: English
Encoded date: UTC 2012-10-18 08:26:05
Tagged date: UTC 2012-10-17 12:41:57

Audio
ID: 1
Format: AAC
Format/Info: Advanced Audio Codec
Format profile: LC
Codec ID: 40
Duration: 7mn 30s
Bit rate mode: Constant
Bit rate: 128 Kbps
Channel(s): 2 channels
Channel positions: Front: L R
Sampling rate: 48.0 KHz
Frame rate: 46.875 fps (1024 spf)
Compression mode: Lossy
Stream size: 6.87 MiB (4%)
Language: English
Encoded date: UTC 2012-10-18 08:26:05
Tagged date: UTC 2012-10-17 12:41:57


Added2016-01-19 18:16:29
Size781.34 MB (819,289,221 bytes)
Views10
Num files16 files
Pictures