Taken down by DMCA request

TeachTwinks - Bribing The Teacher With Hot Ass - HD 1080P mp4

CategoryDaddies / Sons
Download
You need to Login or Signup first.
DescriptionNick needs some help real bad, and thankfully he knows just how to get it. Kinky Mitch can't resist some hot twink sucking and a tight little ass around his always solid cock, and when Nick gets on that thing he's determined to become a star student! Fucked hard in the back office (pun intended) the twink gets a shower of jizz to seal the deal! But wait, there's more. See Mitch start a new enterprise we would all sign up for!

Format                                  : MPEG-4
Format profile                          : Base Media
Codec ID                                : isom
File size                                : 3.20 GiB
Duration                                : 20mn 55s
Overall bit rate mode                    : Variable
Overall bit rate                        : 21.9 Mbps
Encoded date                            : UTC 2014-03-20 12:36:20
Tagged date                              : UTC 2014-03-20 12:36:20

Video
ID                                      : 1
Format                                  : AVC
Format/Info                              : Advanced Video Codec
Format profile                          : High@L4.1
Format settings, CABAC                  : Yes
Format settings, ReFrames                : 4 frames
Codec ID                                : avc1
Codec ID/Info                            : Advanced Video Coding
Duration                                : 20mn 55s
Bit rate                                : 21.7 Mbps
Maximum bit rate                        : 35.8 Mbps
Width                                    : 1 920 pixels
Height                                  : 1 080 pixels
Display aspect ratio                    : 16:9
Frame rate mode                          : Constant
Frame rate                              : 29.970 fps
Color space                              : YUV
Chroma subsampling                      : 4:2:0
Bit depth                                : 8 bits
Scan type                                : Progressive
Bits/(Pixel*Frame)                      : 0.349
Stream size                              : 3.17 GiB (99%)
Writing library                          : x264 core 118 r2085kMod 8a62835
Encoding settings                        : cabac=1 / ref=3 / deblock=1:0:0 / analyse=0x3:0x113 / me=hex / subme=7 / psy=1 / fade_compensate=0.00 / psy_rd=1.00:0.00 / mixed_ref=1 / me_range=16 / chroma_me=1 / trellis=1 / 8x8dct=1 / cqm=0 / deadzone=21,11 / fast_pskip=1 / chroma_qp_offset=-2 / threads=12 / sliced_threads=0 / nr=0 / decimate=1 / interlaced=0 / bluray_compat=0 / constrained_intra=0 / bframes=3 / b_pyramid=2 / b_adapt=1 / b_bias=0 / direct=1 / weightb=1 / open_gop=0 / weightp=2 / keyint=250 / keyint_min=25 / scenecut=40 / intra_refresh=0 / rc_lookahead=40 / rc=crf / mbtree=1 / crf=21.0000 / qcomp=0.60 / qpmin=0 / qpmax=69 / qpstep=4 / vbv_maxrate=30000 / vbv_bufsize=30000 / crf_max=0.0 / nal_hrd=none / ip_ratio=1.40 / aq=1:1.00
Encoded date                            : UTC 2014-03-20 12:36:20
Tagged date                              : UTC 2014-03-20 12:38:46

Audio
ID                                      : 2
Format                                  : AAC
Format/Info                              : Advanced Audio Codec
Format profile                          : LC
Codec ID                                : 40
Duration                                : 20mn 55s
Bit rate mode                            : Variable
Bit rate                                : 192 Kbps
Maximum bit rate                        : 241 Kbps
Channel(s)                              : 2 channels
Channel positions                        : Front: L R
Sampling rate                            : 44.1 KHz
Compression mode                        : Lossy
Stream size                              : 28.6 MiB (1%)
Encoded date                            : UTC 2014-03-20 12:38:45
Tagged date                              : UTC 2014-03-20 12:38:46



Added2014-05-26 10:29:50
Size3.21 GB (3,443,779,807 bytes)
Views0
Num files2 files
Pictures