♺ Ransom Video2011 Bareback Bordello DVD AAC x264

CategoryBareback
Download
You need to Login or Signup first.
DescriptionOriginal upload: 2011-09-03 |
Enjoy :)

General
Complete name                    : Ransom.Video2011.Bareback.Bordello.DVD.AAC.x264.mp4
Format                          : MPEG-4
Format profile                  : Apple iPhone
Codec ID                        : M4VP
File size                        : 1.46 GiB
Duration                        : 1h 18mn
Overall bit rate                : 2 665 Kbps
Encoded date                    : UTC 2011-09-03 11:35:28
Tagged date                      : UTC 2011-09-03 11:35:28

Video
ID                              : 1
Format                          : AVC
Format/Info                      : Advanced Video Codec
Format profile                  : High@L4.1
Format settings, CABAC          : Yes
Format settings, ReFrames        : 3 frames
Codec ID                        : avc1
Codec ID/Info                    : Advanced Video Coding
Duration                        : 1h 18mn
Bit rate mode                    : Variable
Bit rate                        : 2 524 Kbps
Maximum bit rate                : 14.0 Mbps
Width                            : 656 pixels
Height                          : 480 pixels
Display aspect ratio            : 4:3
Frame rate mode                  : Constant
Frame rate                      : 23.976 fps
Color space                      : YUV
Chroma subsampling              : 4:2:0
Bit depth                        : 8 bits
Scan type                        : Progressive
Bits/(Pixel*Frame)              : 0.334
Stream size                      : 1.38 GiB (95%)
Writing library                  : x264 core 116 r2074 2641b9e
Encoding settings                : cabac=1 / ref=4 / deblock=1:0:0 / analyse=0x3:0x113 / me=hex / subme=7 / psy=1 / psy_rd=1.00:0.00 / mixed_ref=1 / me_range=16 / chroma_me=1 / trellis=1 / 8x8dct=1 / cqm=0 / deadzone=21,11 / fast_pskip=1 / chroma_qp_offset=-2 / threads=6 / sliced_threads=0 / slices=4 / nr=0 / decimate=1 / interlaced=0 / bluray_compat=0 / constrained_intra=0 / bframes=3 / b_pyramid=1 / b_adapt=1 / b_bias=0 / direct=1 / weightb=1 / open_gop=0 / weightp=0 / keyint=24 / keyint_min=2 / scenecut=40 / intra_refresh=0 / rc_lookahead=24 / rc=2pass / mbtree=1 / bitrate=2524 / ratetol=1.0 / qcomp=0.60 / qpmin=10 / qpmax=51 / qpstep=4 / cplxblur=20.0 / qblur=0.5 / vbv_maxrate=14000 / vbv_bufsize=14500 / nal_hrd=vbr / ip_ratio=1.40 / aq=1:1.00
Encoded date                    : UTC 2011-09-03 11:35:28
Tagged date                      : UTC 2011-09-03 11:40:48

Audio
ID                              : 2
Format                          : AAC
Format/Info                      : Advanced Audio Codec
Format profile                  : HE-AAC / LC
Codec ID                        : 40
Duration                        : 1h 18mn
Bit rate mode                    : Variable
Bit rate                        : 139 Kbps
Maximum bit rate                : 149 Kbps
Channel(s)                      : 2 channels
Channel positions                : Front: L R
Sampling rate                    : 48.0 KHz / 24.0 KHz
Compression mode                : Lossy
Stream size                      : 77.7 MiB (5%)
Encoded date                    : UTC 2011-09-03 11:40:44
Tagged date                      : UTC 2011-09-03 11:40:48


Added2014-07-25 16:22:04
Size1.46 GB (1,564,536,929 bytes)
Views1753
Num files3 files
Pictures