Taken down by DMCA request

[Man Royale] Special Treatment [Bobby Hart and Alex Graham] [1080p]

CategoryHunks
Download
You need to Login or Signup first.
Description[Man Royale] Special Treatment [Bobby Hart and Alex Graham] [1080p]

I figured that the wmv video format from this site "Man Royale" gives us best video quality. But this vid makes an exception. The wmv video format of this one causes some errors so you cannot play the full video then i have to replace it with the mpg video format. Its size might be large a bit but it's worth (lol) and of course i won't upscale any video's quality cause i'm a man of best quality

Enjoy!

Media Info.

Format                                  : MPEG-PS
File size                                : 3.42 GiB
Duration                                : 33mn 24s
Overall bit rate mode                    : Variable
Overall bit rate                        : 14.7 Mbps

Video
ID                                      : 224 (0xE0)
Format                                  : MPEG Video
Format version                          : Version 1
Format settings, BVOP                    : No
Format settings, Matrix                  : Default
Format settings, GOP                    : N=12
Duration                                : 33mn 24s
Bit rate mode                            : Variable
Bit rate                                : 14.3 Mbps
Width                                    : 1 920 pixels
Height                                  : 1 080 pixels
Display aspect ratio                    : 16:9
Frame rate                              : 23.976 fps
Color space                              : YUV
Chroma subsampling                      : 4:2:0
Bit depth                                : 8 bits
Scan type                                : Progressive
Compression mode                        : Lossy
Bits/(Pixel*Frame)                      : 0.287
Time code of first frame                : 00:00:00:00
Time code source                        : Group of pictures header
GOP, Open/Closed                        : Open
Stream size                              : 3.33 GiB (97%)

Audio
ID                                      : 192 (0xC0)
Format                                  : MPEG Audio
Format version                          : Version 1
Format profile                          : Layer 2
Duration                                : 33mn 24s
Bit rate mode                            : Constant
Bit rate                                : 128 Kbps
Channel(s)                              : 2 channels
Sampling rate                            : 48.0 KHz
Compression mode                        : Lossy
Stream size                              : 30.6 MiB (1%)


Added2015-02-21 11:00:46
Size3.42 GB (3,675,990,016 bytes)
Views0
Num files1 files
Pictures