Tyron From Berlin

You need to Login or Signup first.
DescriptionA beautiful black boy performing solo in the open.
A clip from Berlin-Male.Com. German with english subtitles.

Complete name: tyron_from_berlin.wmv
Format: Windows Media
File size: 63.1 MiB
Duration: 6mn 56s
Overall bit rate mode: Variable
Overall bit rate: 1 271 Kbps
Maximum Overall bit rate: 1 573 Kbps
Performer: Berlin-Male.Com
Encoded date: UTC 2007-09-09 02:56:25.828
Writing application: TMPGEnc 4.0 XPress Version.
Copyright: Berlin-Male.Com

ID: 2
Format: VC-1
Format profile: MP@ML
Codec ID: WMV3
Codec ID/Info: Windows Media Video 9
Codec ID/Hint: WMV3
Description of the codec: Windows Media Video 9 - Professional
Duration: 6mn 56s
Bit rate mode: Variable
Bit rate: 1 200 Kbps
Width: 720 pixels
Height: 540 pixels
Display aspect ratio: 4:3
Frame rate: 25.000 fps
Color space: YUV
Chroma subsampling: 4:2:0
Bit depth: 8 bits
Scan type: Progressive
Compression mode: Lossy
Bits/(Pixel*Frame): 0.123
Stream size: 59.6 MiB (94%)
Language: German

ID: 1
Format: WMA
Format version: Version 2
Codec ID: 161
Codec ID/Info: Windows Media Audio
Description of the codec: Windows Media Audio 9.2 -  64 kbps, 44 kHz, stereo 1-pass CBR
Duration: 6mn 56s
Bit rate mode: Constant
Bit rate: 64.0 Kbps
Channel(s): 2 channels
Sampling rate: 44.1 KHz
Bit depth: 16 bits
Stream size: 3.18 MiB (5%)
Language: German
Added2015-11-08 20:22:26
Size63.10 MB (66,168,093 bytes)
Num files1 files