Latinboyz - GoYo - HD - 720p +

CategorySolo
Download
You need to Login or Signup first.
DescriptionBeautiful Latino boy GoYo jacks himself off to a HUGE creamy load, all over his smooth brown body...

Released 2014
Duration: 5 minutes, 49 Seconds

I spotted this video 2 nights ago, and worked to convert it from a .mov format to .avi, without ANY LOSS in picture
quality and clarity. The stunning beauty of GoYo... is frankly, just beyond belief, and it's my pleasure to share it with
you.

Note, this is a replacement for last night's upload, where I inadvertently forgot to compress the audio stream,
resulting in a 60K larger file, and 20% higher bit rate... Sorry about that!!!

=============Technical Details=============
[General] Complete name : Latinboyzs - GoYo - HD - 720p +.avi
Format : AVI
Format/Info : Audio Video Interleave
File size : 172 MiB
Duration : 5mn 49s
Overall bit rate : 4 132 Kbps
Writing application : XviD4PSP 6.0 / 53.6.0
Writing library : VirtualDub build 32839/release

[Video] ID : 0
Format : MPEG-4 Visual
Format profile : Advanced Simple@L5
Format settings, BVOP : 2
Format settings, QPel : No
Format settings, GMC : No warppoints
Format settings, Matrix : Default (MPEG)
Muxing mode : Packed bitstream
Codec ID : XVID
Codec ID/Hint : XviD
Duration : 5mn 49s
Bit rate : 3 992 Kbps
Width : 1 280 pixels
Height : 720 pixels
Display aspect ratio : 16:9
Frame rate : 29.970 fps
Color space : YUV
Chroma subsampling : 4:2:0
Bit depth : 8 bits
Scan type : Progressive
Compression mode : Lossy
Bits/(Pixel*Frame) : 0.145
Stream size : 166 MiB (97%)
Writing library : XviD 64

[Audio] ID : 1
Format : MPEG Audio
Format version : Version 1
Format profile : Layer 3
Mode : Joint stereo
Mode extension : MS Stereo
Codec ID : 55
Codec ID/Hint : MP3
Duration : 5mn 49s
Bit rate mode : Constant
Bit rate : 128 Kbps
Channel count : 2 channels
Sampling rate : 48.0 KHz
Compression mode : Lossy
Stream size : 5.33 MiB (3%)
Alignment : Split accross interleaves
Interleave, duration : 33 ms (1.00 video frame)
Interleave, preload duration : 500 ms
Added2014-09-04 16:14:55
Size174.53 MB (183,008,612 bytes)
Views6
Num files15 files
Pictures