♺ Guys Gone Wild : Fully Loaded

CategoryYoungblood
Download
You need to Login or Signup first.
DescriptionOriginal upload: 2013-05-15 |
Original Upload: 2010-10-03 |  Guys Gone Wild: Fully Loaded

These hot young hunks are cocked and loaded. Meet Titan, a tatted-up bad boy with spiky hair and ripped abs. You'll be feeling patriotic when he strips down to his red, white and blue thong and brings himself to full salute! Next up is Jack, an apt name for this hunk who likes to shave his junk. When he pulls off his tighty whiteys, see how the trim job makes him look even bigger! Speaking of big, see if the rumors are true when an African-American Adonis drops his trunks on the beach. And biggest of all is Chris. You'd never guess it by looking at his tiny frame, but he's got a gorged boa constrictor in his pants. Watch in amazement as he cranes into position and actually sucks himself off! You'll watch it again and again!.

Format                          : MPEG-4
Format profile                  : Base Media
Codec ID                        : isom
File size                        : 1.40 GiB
Duration                        : 47mn 47s
Overall bit rate                : 4 206 Kbps
Movie name                      : FULLY_LOADED.Title1.DVDRip
Album                            : FULLY_LOADED
Encoded date                    : 2010
Writing application              : Lavf52.33.0

Video
ID                              : 1
Format                          : AVC
Format/Info                      : Advanced Video Codec
Format profile                  : Main@L3.0
Format settings, CABAC          : Yes
Format settings, ReFrames        : 2 frames
Codec ID                        : avc1
Codec ID/Info                    : Advanced Video Coding
Duration                        : 47mn 47s
Bit rate mode                    : Variable
Bit rate                        : 4 106 Kbps
Width                            : 640 pixels
Height                          : 480 pixels
Display aspect ratio            : 4:3
Frame rate mode                  : Constant
Frame rate                      : 29.970 fps
Color space                      : YUV
Chroma subsampling              : 4:2:0
Bit depth                        : 8 bits
Scan type                        : Progressive
Bits/(Pixel*Frame)              : 0.446
Stream size                      : 1.37 GiB (98%)
Writing library                  : x264 core
Color primaries                  : BT.601-6 525, BT.1358 525, BT.1700 NTSC, SMPTE 170M
Transfer characteristics        : BT.709-5, BT.1361
Matrix coefficients              : BT.601-6 525, BT.1358 525, BT.1700 NTSC, SMPTE 170M

Audio
ID                              : 2
Format                          : AAC
Format/Info                      : Advanced Audio Codec
Format version                  : Version 4
Format profile                  : LC
Format settings, SBR            : No
Codec ID                        : 40
Duration                        : 47mn 37s
Bit rate mode                    : Variable
Bit rate                        : 96.0 Kbps
Channel(s)                      : 6 channels
Channel positions                : Front: L C R, Side: L R, LFE
Sampling rate                    : 48.0 KHz
Stream size                      : 32.6 MiB (2%)
Added2015-11-06 17:47:07
Size1.41 GB (1,508,780,626 bytes)
Views2529
Num files5 files
Pictures