♺ New film Chubby Daddy Japan Boldface Papa[SSV382]

CategoryChubbies
Download
You need to Login or Signup first.
DescriptionOriginal upload: 2012-10-13 |
He is very big man. he's 54 years old, he has high (165 cm) and weight(110kg).
Do you like Him?
Taste delicious, mature and chubby PAPA !!
General (other name)                  : SSV382 - Samson - BOLD PAPA (Boldface Papa)
Complete name                            : E:SSV382Chubby Papa Japan-SSV382.avi
Format                                  : AVI
Format/Info                              : Audio Video Interleave
File size                                : 1.41 GiB
Duration                                : 1h 26mn
Overall bit rate                        : 2 340 Kbps

Video
ID                                      : 0
Format                                  : MPEG-4 Visual
Format settings, BVOP                    : No
Format settings, QPel                    : No
Format settings, GMC                    : No warppoints
Format settings, Matrix                  : Default (H.263)
Codec ID                                : DX50
Codec ID/Hint                            : DivX 5
Duration                                : 1h 26mn
Bit rate                                : 780 Kbps
Width                                    : 720 pixels
Height                                  : 480 pixels
Display aspect ratio                    : 3:2
Frame rate                              : 29.970 fps
Standard                                : NTSC
Color space                              : YUV
Chroma subsampling                      : 4:2:0
Bit depth                                : 8 bits
Scan type                                : Progressive
Compression mode                        : Lossy
Bits/(Pixel*Frame)                      : 0.075
Stream size                              : 483 MiB (33%)
Writing library                          : DivX 5.2.0 (UTC 2004-07-15)

Audio
ID                                      : 1
Format                                  : PCM
Format settings, Endianness              : Little
Format settings, Sign                    : Signed
Codec ID                                : 1
Duration                                : 1h 26mn
Bit rate mode                            : Constant
Bit rate                                : 1 536 Kbps
Channel(s)                              : 2 channels
Sampling rate                            : 48.0 KHz
Bit depth                                : 16 bits
Stream size                              : 951 MiB (66%)
Interleave, duration                    : 10 ms (0.31 video frame)
Interleave, preload duration            : 20 ms
Added2015-02-22 16:01:39
Size1.41 GB (1,518,769,664 bytes)
Views859
Num files1 files
Pictures