♺ Black Sata - Straight College Boy Anal - Tsukamoto 19yo [BOT375]

CategoryAsian
Download
You need to Login or Signup first.
DescriptionOriginal upload: 2012-11-18 |

Original Title: 現役大学生ノンケ素人限定 初めてのアナルセックス 塚本歩 19歳
Release Date: 2012/05/11

General
College Boy Anal - Tsukamoto 19yo [BOT375].avi
Format                                  : AVI
Format/Info                              : Audio Video Interleave
File size                                : 1.95 GiB
Duration                                : 2h 12mn
Overall bit rate                        : 2 108 Kbps
Writing application                      : VirtualDubMod 1.5.4.1 (build 2178/release)
Writing library                          : VirtualDubMod build 2178/release

Video
ID                                      : 0
Format                                  : MPEG-4 Visual
Format profile                          : Advanced Simple@L5
Format settings, BVOP                    : No
Format settings, QPel                    : No
Format settings, GMC                    : No warppoints
Format settings, Matrix                  : Custom
Codec ID                                : XVID
Codec ID/Hint                            : XviD
Duration                                : 2h 12mn
Bit rate                                : 1 971 Kbps
Width                                    : 720 pixels
Height                                  : 416 pixels
Display aspect ratio                    : 1.731
Frame rate                              : 29.970 fps
Color space                              : YUV
Chroma subsampling                      : 4:2:0
Bit depth                                : 8 bits
Scan type                                : Progressive
Compression mode                        : Lossy
Bits/(Pixel*Frame)                      : 0.220
Stream size                              : 1.83 GiB (94%)
Writing library                          : XviD 1.2.1 (UTC 2008-12-04)

Audio
ID                                      : 1
Format                                  : MPEG Audio
Format version                          : Version 1
Format profile                          : Layer 3
Mode                                    : Joint stereo
Mode extension                          : MS Stereo
Codec ID                                : 55
Codec ID/Hint                            : MP3
Duration                                : 2h 12mn
Bit rate mode                            : Constant
Bit rate                                : 128 Kbps
Channel(s)                              : 2 channels
Sampling rate                            : 48.0 KHz
Compression mode                        : Lossy
Stream size                              : 121 MiB (6%)
Alignment                                : Aligned on interleaves
Interleave, duration                    : 67 ms (2.00 video frames)
Interleave, preload duration            : 504 ms
Writing library                          : LAME3.98r
Encoding settings                        : -m j -V 4 -q 2 -lowpass 17 -b 128
Added2015-01-17 00:33:04
Size1.95 GB (2,097,176,576 bytes)
Views555
Num files1 files
Pictures