Taken down by DMCA request

[Butch Dixon] Birthday Bukkake [Photo Set Included] [720p]

CategoryOral-Sex
Download
You need to Login or Signup first.
Description[Butch Dixon] Birthday Bukkake [Photo Set Included] [720p]

I know in these times of austerity, my guys want more dick for their buck. So here's eleven of my finest, hairy, burly, hung studs, with one fucking lucky Pablo Nunez in the middle, chomping on several feet of cock, foreskin and cum as he's fed inch, after inch, after inch, after gush, after squirt of hot cock and cum. My bukkake birthday bonanza.

Unfortunately I can't find any info. about the actors.

Media Info.

Format                                  : MPEG-4
Format profile                          : Base Media / Version 2
Codec ID                                : mp42
File size                                : 804 MiB
Duration                                : 27mn 0s
Overall bit rate                        : 4 162 Kbps
Encoded date                            : UTC 2012-09-16 05:21:21
Tagged date                              : UTC 2012-09-17 05:21:27
Writing application                      : Sorenson Squeeze
Comment                                  : Encoded by

Video
ID                                      : 2
Format                                  : AVC
Format/Info                              : Advanced Video Codec
Format profile                          : High@L3.1
Format settings, CABAC                  : No
Format settings, ReFrames                : 2 frames
Codec ID                                : avc1
Codec ID/Info                            : Advanced Video Coding
Duration                                : 27mn 0s
Bit rate                                : 3 998 Kbps
Width                                    : 1 280 pixels
Height                                  : 720 pixels
Display aspect ratio                    : 16:9
Frame rate mode                          : Constant
Frame rate                              : 25.000 fps
Standard                                : PAL
Color space                              : YUV
Chroma subsampling                      : 4:2:0
Bit depth                                : 8 bits
Scan type                                : Progressive
Bits/(Pixel*Frame)                      : 0.174
Stream size                              : 772 MiB (96%)
Encoded date                            : UTC 2012-09-16 05:21:21
Tagged date                              : UTC 2012-09-16 05:21:21
Color primaries                          : BT.709
Transfer characteristics                : BT.709
Matrix coefficients                      : BT.709
Color range                              : Limited

Audio
ID                                      : 1
Format                                  : AAC
Format/Info                              : Advanced Audio Codec
Format profile                          : LC
Codec ID                                : 40
Duration                                : 27mn 0s
Bit rate mode                            : Constant
Bit rate                                : 160 Kbps
Channel(s)                              : 2 channels
Channel positions                        : Front: L R
Sampling rate                            : 44.1 KHz
Compression mode                        : Lossy
Stream size                              : 30.9 MiB (4%)
Encoded date                            : UTC 2012-09-16 05:21:21
Tagged date                              : UTC 2012-09-16 05:21:21


Added2015-03-05 12:02:26
Size819.42 MB (859,227,054 bytes)
Views0
Num files135 files
Pictures