SDBoy - En El Parque - Ben, Gabriel - 720P - Remastered

CategoryBareback
Download
You need to Login or Signup first.
DescriptionThese boyfriends are playing in the park. Ben, the one with the long sideburns, wrestles Gabriel, the bottom, to the ground. While the guys roll in the grass, Ben is definitely thinking about tapping some ass. Being very oral, they kiss and lick one another like a "dulce," or candy. This pair has actually been together since they were youngsters and know every inch of each other well. It doesn't take long before Gabriel drops his pants, and bends over his favorite rock; Ben wets the hole and rims the fuck out of his "novio."

As the camera zooms in, almost as deep as Ben's tongue, the boyfriends gets into position; seems like Gabriel's ass likes to be "spelunked;" Ben takes rimming to a "hole" new level. Ramming the bottom with four of his fingers, Ben's fisting creates an "opening" needing to be filled. The top then has his lover stand while he blows him; both enjoy the "pre-fuck" load Gabriel spews. Kissing, the boys ready themselves for Gabriel continuing  to worship Ben's cock, deep throating all that goodness. Spitting, stroking and choking, the bottom boy, on the rock, is about to get something equally hard. As Ben slides in him, the camera angle is perfect for some park time fucking. Slamming his cock back and forth in his boyfriend, the top has Gabriel moaning fast. Switching positions, the bottom then takes a noise ride on Ben; got to love those squeaky "outings."

Putting the bottom boy on all fours, Ben is able to go balls deep as he fucks Gabriel; that bottom boy has a hold sweet and welcoming. As the camera shows from above, Gabriel's tight hole and giggling ass has Ben spewing early, who wouldn't? "Sealing between the crack," the top then enjoys his "own fruits" and sucks up the jizz before he spits it back in. Gabriel's mouth needing a taste of Ben's hard work, and his ass, again sucks on his boyfriend. The two then spend some quality time rolling around in the grass, licking and kissing. {Studio Promotion, minor editing}

Includes 90 hand-selected picture frames from the video, for your enjoyment... Makes a great Windows Slideshow!

Title: En El Parque (In The Park) - Ben, Gabriel
Studio: SDBoy
Released Jun 27, 2014
Parts 1 and 2 joined, Image Sharpened
Duration: 26 minutes

Tags: ~Anal Sex, ~Bareback, ~Blowjob, ~Facial, ~Fingering, ~Fisting, ~Kissing, ~Latinos, ~Masturbation, ~Outdoors, ~Real Boyfriends, ~Rimming, ~Spitting, ~Twinks, ~Uncut, ~Youngblood

Studio Link: http://www.sdboy.com/gay-porn/scenes.html?nats=MTAwNDUuMi4xNS4xNS4wLjAuMC4wLjA&start=36&count=36

Personal/Technical Notes:
Let's not pretend that this video is sharp or crisp, because it's not; but the sex between these two real-life Latino boyfriends is pretty hot! And the unrestrained cum-lapping both from spewing cocks and sprayed boy-pussies, tends to make up for any technical shortcomings, lol.

Too, calling this "Remastered" is rather stretching reality here, since all I really did was uncompress the original files, join the two parts, eliminate the second title/intro, and add a fade to smooth the transition between parts 1 and 2 to imperceptible. NO color correction was performed, and a moderate degree of sharpening was added (24/64) to try and improve the less-than-crisp NON-SHD camera images, for reasonable results. Audio stripped off, to convert to MP3 lame3.98r, 48000 KHz.

Encoded to H264 MP4 format, optimized at a Q factor of .200, with lame 3.98r MP3 audio muxed.

Enjoy!
PawpcornJr

Multimedia Analysis:
[General]
Complete name : SDBoys - En El Parque - 720p - Remastered.mp4
Format : MPEG-4
Format profile : Base Media
Codec ID : isom
File size : 1.04 GiB
Duration : 26mn 8s
Overall bit rate : 5 673 Kbps
Encoded date : UTC 2015-10-22 09:16:35
Tagged date : UTC 2015-10-22 09:16:35

[Video] ID : 1
Format : AVC
Format/Info : Advanced Video Codec
Format profile : High@L3.1
Format settings, CABAC : Yes
Format settings, ReFrames : 3 frames
Codec ID : avc1
Codec ID/Info : Advanced Video Coding
Duration : 26mn 8s
Source duration : 5s 465ms
Bit rate : 5 540 Kbps
Maximum bit rate : 9 045 Kbps
Width : 1 280 pixels
Height : 720 pixels
Display aspect ratio : 16:9
Frame rate mode : Constant
Frame rate : 30.000 fps
Color space : YUV
Chroma subsampling : 4:2:0
Bit depth : 8 bits
Scan type : Progressive
Bits/(Pixel*Frame) : 0.200
Stream size : 1.01 GiB (98%)
Source stream size : 1.01 GiB (98%)
Writing library : x264 core 146 r2538bm 121396c
Encoding settings : cabac=1 / ref=3 / deblock=1:0:0 / analyse=0x3:0x113 / me=hex / subme=7 / psy=1 / psy_rd=1.00:0.00 / mixed_ref=1 / me_range=16 / chroma_me=1 / trellis=1 / 8x8dct=1 / cqm=0 / deadzone=21,11 / fast_pskip=1 / chroma_qp_offset=-2 / threads=2 / lookahead_threads=2 / sliced_threads=1 / slices=2 / nr=0 / decimate=1 / interlaced=0 / bluray_compat=0 / constrained_intra=0 / bframes=0 / weightp=2 / keyint=250 / keyint_min=25 / scenecut=40 / intra_refresh=0 / rc=2pass / mbtree=0 / bitrate=5540 / ratetol=1.0 / qcomp=0.60 / qpmin=0 / qpmax=69 / qpstep=4 / cplxblur=20.0 / qblur=0.5 / ip_ratio=1.40 / aq=1:1.00
Encoded date : UTC 2015-10-22 03:45:28
Tagged date : UTC 2015-10-22 09:17:05
mdhd_Duration : 1568833

[Audio] ID : 2
Format : MPEG Audio
Format version : Version 1
Format profile : Layer 3
Codec ID : 6B
Duration : 26mn 8s
Bit rate mode : Constant
Bit rate : 128 Kbps
Maximum bit rate : 132 Kbps
Channel(s) : 2 channels
Sampling rate : 48.0 KHz
Compression mode : Lossy
Stream size : 23.9 MiB (2%)
Writing library : LAME3.98r
Encoding settings : -m s -V 4 -q 3 -lowpass 17 -b 128
Language : Spanish
Encoded date : UTC 2015-10-22 09:17:05
Tagged date : UTC 2015-10-22 09:17:05
Added2015-10-25 16:28:03
Size1.08 GB (1,164,505,332 bytes)
Views17
Num files93 files
Pictures