Brigade Studios - Best of Brigade #9 - Best Foot Forward (2001)

CategoryFetish
Download
You need to Login or Signup first.
DescriptionTwink fan alert: If you've never seen one of director David Collins' Canadian porn romps, this compilation is a good way to experience them for the first time. Granted, this studio is really for young twink lovers only, but if that's your thing you'll be singing "Blame Canada!" for getting you all sticky. Beefed up with extra footage, this one is perfect for collector's as well as first-time viewers

Cast: Michel Xavier, Hans Zimmerman, Lucas DuSolei, Jeremie DuNord, Billy Gascon, Jason Desjardin, Geoffri Laurent, Eric LaCroix, Alain Medio, Bryan Gaspe

Tags: oral, blowjob, anal, rimming, tongue fuck, tongue fucking, condom, cumshot, cum shot, foot, foot fetish, foot worship, feet

Codec Information:

General
Format                                  : AVI
Format/Info                              : Audio Video Interleave
File size                                : 901 MiB
Duration                                : 1h 34mn
Overall bit rate                        : 1 334 Kbps
Writing application                      : Lavf51.11.0

Video
ID                                      : 0
Format                                  : MPEG-4 Visual
Format profile                          : Simple@L1
Format settings, BVOP                    : No
Format settings, QPel                    : No
Format settings, GMC                    : No warppoints
Format settings, Matrix                  : Default (H.263)
Codec ID                                : FMP4
Duration                                : 1h 34mn
Bit rate                                : 1 194 Kbps
Width                                    : 640 pixels
Height                                  : 480 pixels
Display aspect ratio                    : 4:3
Frame rate                              : 23.976 fps
Color space                              : YUV
Chroma subsampling                      : 4:2:0
Bit depth                                : 8 bits
Scan type                                : Progressive
Compression mode                        : Lossy
Bits/(Pixel*Frame)                      : 0.162
Stream size                              : 807 MiB (89%)
Writing library                          : Lavc51.39.0

Audio
ID                                      : 1
Format                                  : MPEG Audio
Format version                          : Version 1
Format profile                          : Layer 3
Codec ID                                : 55
Codec ID/Hint                            : MP3
Duration                                : 1h 34mn
Bit rate mode                            : Constant
Bit rate                                : 128 Kbps
Channel count                            : 2 channels
Sampling rate                            : 44.1 KHz
Compression mode                        : Lossy
Stream size                              : 86.5 MiB (10%)
Alignment                                : Aligned on interleaves
Interleave, duration                    : 26 ms (0.63 video frame)
Interleave, preload duration            : 26 ms
Writing library                          : LAME3.97 (beta)

Enjoy :)
Added2014-06-07 18:52:35
Size901.42 MB (945,204,604 bytes)
Views3
Num files1 files
Pictures