♺ G@mes - Cumming Inside Male Holes #2 - 雄穴中出し

CategoryAsian
Download
You need to Login or Signup first.
DescriptionOriginal upload: 2011-07-03 |
5月に発売した「雄穴中出し2」がなんとDVD&Blu-rayのセットになって登場!
定価も10周年の特別価格でお安くなりました!

全編生掘り中出しの驚愕の人気作品「雄穴中出し」の第2弾が遂に登場!
今回は、極タチ3[/URL]にてエロい絡みを見せた渉が、またまた航君を相手にさらにエロく濃厚なSEXを披露!
他にもイカツイ系マッチョ君や読者モデル君など4人の男たちの雄穴から白汁が垂れる!

GAMES
Macho / Gym-Types / Bareback
DVD & Blu-ray Disc / 135min
2011/07/02 NEW !!!

OSUANA NAKADASHI 2

Raw fuckings and cum inside to young and fresh macho guys !!



  General
      Complete name : [G@MES] 雄穴中出し 2 - G@mes 10周年全編生掘り中出しの驚愕の人?作品.avi
      Format : AVI
      Format/Info : Audio Video Interleave
      Format profile : OpenDML
      File size : 1.99 GiB
      Duration : 2h 27mn
      Overall bit rate : 1 938 Kbps
      Writing application : AVI-Mux GUI 1.17.8.3, Feb 16 201019:42:50
  Video #0
      ID : 0
      Format : MPEG-4 Visual
      Format profile : AdvancedSimple@L5
      Format settings, BVOP : Yes
      Format settings, QPel : No
      Format settings, GMC : No warppoints
      Format settings, Matrix : Custom
      Codec ID : XVID
      Codec ID/Hint : XviD
      Duration : 2h 27mn
      Bit rate : 1 806 Kbps
      Width : 720 pixels
      Height : 480 pixels
      Display aspect ratio : 4.615
      Frame rate : 29.970 fps
      Standard : NTSC
      Resolution : 24 bits
      Colorimetry : 4:2:0
      Scan type : Progressive
      Bits/(Pixel*Frame) : 0.174
      Stream size : 1.85 GiB (93%)
      Writing library : XviD 63
  Audio #1
      ID : 1
      Format : MPEG Audio
      Format version : Version 1
      Format profile : Layer 3
      Codec ID : 55
      Codec ID/Hint : MP3
      Duration : 2h 27mn
      Bit rate mode : Constant
      Bit rate : 128 Kbps
      Channel(s) : 2 channels
      Sampling rate : 48.0 KHz
      Resolution : 16 bits
      Stream size : 135 MiB (7%)
      Alignment : Aligned on interleaves
      Interleave, duration : 449 ms (13.45 video frames)
      Interleave, preload duration : 216 ms
      Title : dvd_src
      Writing library : LAME3.98.4

Added2015-08-15 07:22:06
Size1.99 GB (2,137,872,570 bytes)
Views2465
Num files1 files
Pictures