Taken down by DMCA request

Skater Fun, Bareback Foot Fetish, 720p

CategoryBareback
Download
You need to Login or Signup first.
DescriptionTwo skaters relax together, licking their feet and fucking each other like there's no tomorrow....

Released: May 1, 2014 | Type: mp4 | Size: 864 MB | Resolution: 1280 x 720 | Duration : 00:23:33

Featuring: Chase Evans, Kamyk Walker

Some great gay skater boy sex!! This new arrival stars the gorgeous Kamyk Walker getting some cock action going with sweet and sexy Chase Evans, and it’s going to have a lot of you wanking out some juice.

There’s some more sexy and kinky gay foot fetish fun in this one too by the looks of things, and although we have a lot of different fetishes in our videos this is one that gets a lot of attention from the members.

With all that sucking, wanking and rimming getting the boys revved up, Kamyk offers his ass for his friend to slide his dick into and it results in a bareback fuck for the gay skater boys.

I love this theme; both these boys are so sexy and sweet, and this kind of storyline is one that gets many of us hard within seconds – yeah I know it! lol

=================Technical Details================
[General] Complete name :ChaseEvans-KamykWalker.mp4
Format : MPEG-4
Format profile : Base Media / Version 2
Codec ID : mp42
File size : 864 MiB
Duration : 23mn 33s
Overall bit rate mode : Variable
Overall bit rate : 5 126 Kbps
Encoded date : UTC 2014-04-23 16:23:05
Tagged date : UTC 2014-04-23 16:23:05

[Video] ID : 2
Format : AVC
Format/Info : Advanced Video Codec
Format profile : High@L3.1
Format settings, CABAC : Yes
Format settings, ReFrames : 4 frames
Codec ID : avc1
Codec ID/Info : Advanced Video Coding
Duration : 23mn 33s
Source duration : 23mn 33s
Bit rate mode : Constant
Bit rate : 5 000 Kbps
Width : 1 280 pixels
Height : 720 pixels
Display aspect ratio : 16:9
Frame rate mode : Variable
Frame rate : 29.970 fps
Standard : NTSC
Color space : YUV
Chroma subsampling : 4:2:0
Bit depth : 8 bits
Scan type : Progressive
Bits/(Pixel*Frame) : 0.181
Stream size : 842 MiB (97%)
Source stream size : 842 MiB (97%)
Language : English
Encoded date : UTC 2014-04-23 16:23:09
Tagged date : UTC 2014-04-23 16:23:09
mdhd_Duration : 1413379
Color primaries : BT.709
Transfer characteristics : BT.709
Matrix coefficients : BT.709

[Audio] ID : 1
Format : AAC
Format/Info : Advanced Audio Codec
Format profile : LC
Codec ID : 40
Duration : 23mn 32s
Source duration : 23mn 33s
Bit rate mode : Variable
Bit rate : 126 Kbps
Maximum bit rate : 259 Kbps
Channel count : 2 channels
Channel positions : Front: L R
Sampling rate : 44.1 KHz
Compression mode : Lossy
Stream size : 21.2 MiB (2%)
Source stream size : 21.2 MiB (2%)
Language : English
Encoded date : UTC 2014-04-23 16:23:09
Tagged date : UTC 2014-04-23 16:23:09
mdhd_Duration : 1412018

Added2014-05-01 13:11:21
Size863.74 MB (905,691,949 bytes)
Views5
Num files1 files
Pictures