♺ [beast] Straight Spirit Seriously Confused 2 (ノンケが男のテクでここまで乱れる。全員体育会部員 2) [BST188][KBEA154]

CategoryAsian
Download
You need to Login or Signup first.
DescriptionOriginal upload: 2012-11-09 |
前作をはるかに超えるモデルと内容で送る、ノンケ体育会ファン必見の極上エロビデオ。
全員体育会部員、第二弾が遂に完成!
手コキ、フェラだけじゃ終わらない
初めてのアナル愛撫にノンケが狂う。
鍛えた筋肉アスリートの性感帯を熟練の職人テクでどこまでも責めまくる!
さらに、大人気モデル【全員子持ちの若パパ大集合】に出演の梅本君、【BACK WILD 12】に出演の福原君も登場
さらに笑顔が超可愛いS級メイン宇佐見くんがあまりの快感に乱れちゃう!
とにかくエロい総勢11人のノンケ体育会部員の男のテクに酔いしれる激エロ姿をご覧ください。

General
Format                                  : MPEG-4
Codec ID                                : M4V
File size                                : 1.96 GiB
Duration                                : 2h 15mn
Overall bit rate mode                    : Variable
Overall bit rate                        : 2 065 Kbps
Encoded date                            : UTC 2012-05-10 14:30:23
Tagged date                              : UTC 2012-05-10 14:30:23

Video
ID                                      : 1
Format                                  : AVC
Format/Info                              : Advanced Video Codec
Format profile                          : Main@L4.1
Format settings, CABAC                  : Yes
Format settings, ReFrames                : 4 frames
Codec ID                                : avc1
Codec ID/Info                            : Advanced Video Coding
Duration                                : 2h 15mn
Bit rate mode                            : Variable
Bit rate                                : 1 958 Kbps
Maximum bit rate                        : 15.0 Mbps
Width                                    : 1 280 pixels
Height                                  : 720 pixels
Display aspect ratio                    : 16:9
Frame rate mode                          : Constant
Frame rate                              : 59.940 fps
Color space                              : YUV
Chroma subsampling                      : 4:2:0
Bit depth                                : 8 bits
Scan type                                : Progressive
Bits/(Pixel*Frame)                      : 0.035
Stream size                              : 1.86 GiB (95%)
Title                                    : Vid
Writing library                          : x264 core 122 r2184 5c85e0a
Encoding settings                        : cabac=1 / ref=4 / deblock=1:-1:-1 / analyse=0x1:0x131 / me=umh / subme=10 / psy=1 / psy_rd=1.00:0.15 / mixed_ref=1 / me_range=24 / chroma_me=1 / trellis=2 / 8x8dct=0 / cqm=0 / deadzone=21,11 / fast_pskip=1 / chroma_qp_offset=-3 / threads=6 / sliced_threads=0 / slices=4 / nr=0 / decimate=1 / interlaced=0 / bluray_compat=1 / constrained_intra=0 / bframes=3 / b_pyramid=0 / b_adapt=2 / b_bias=0 / direct=3 / weightb=0 / open_gop=0 / weightp=0 / keyint=120 / keyint_min=1 / scenecut=40 / intra_refresh=0 / rc_lookahead=60 / rc=2pass / mbtree=1 / bitrate=1958 / ratetol=1.0 / qcomp=0.60 / qpmin=0 / qpmax=69 / qpstep=4 / cplxblur=20.0 / qblur=0.5 / vbv_maxrate=15000 / vbv_bufsize=15000 / nal_hrd=vbr / ip_ratio=1.40 / aq=1:1.00
Language                                : Japanese
Encoded date                            : UTC 2012-05-10 14:30:23
Tagged date                              : UTC 2012-05-10 14:32:38
Color primaries                          : BT.709-5, BT.1361, IEC 61966-2-4, SMPTE RP177
Transfer characteristics                : BT.709-5, BT.1361
Matrix coefficients                      : BT.709-5, BT.1361, IEC 61966-2-4 709, SMPTE RP177

Audio
ID                                      : 2
Format                                  : AAC
Format/Info                              : Advanced Audio Codec
Format profile                          : LC
Codec ID                                : 40
Duration                                : 2h 15mn
Bit rate mode                            : Variable
Bit rate                                : 101 Kbps
Maximum bit rate                        : 133 Kbps
Channel(s)                              : 2 channels
Channel positions                        : Front: L R
Sampling rate                            : 48.0 KHz
Compression mode                        : Lossy
Stream size                              : 97.7 MiB (5%)
Title                                    : Aud
Language                                : Japanese
Encoded date                            : UTC 2012-05-10 14:32:35
Tagged date                              : UTC 2012-05-10 14:32:38
Added2015-08-10 13:52:08
Size1.96 GB (2,102,363,274 bytes)
Views650
Num files1 files
Pictures