[surprise!] Anal Sniper 2 (アナルスナイパーII) [SPR26]

CategoryAsian
Download
You need to Login or Signup first.
DescriptionGeneral
Complete name                  : F:[surprise!] Anal Sniper 2 (アナルスナイパーII) [SPR26].avi
Format                        : Ogg
File size                      : 997 MiB
Duration                      : 1 h 55 min
Overall bit rate              : 1 206 kb/s

Video
ID                            : 0 (0x0)
Format                        : MPEG-4 Visual
Format settings, BVOP          : No
Format settings, QPel          : No
Format settings, GMC          : No warppoints
Format settings, Matrix        : Default (H.263)
Codec ID                      : DX50
Codec ID/Hint                  : DivX 5
Duration                      : 1 h 55 min
Bit rate                      : 957 kb/s
Width                          : 640 pixels
Height                        : 480 pixels
Display aspect ratio          : 4:3
Frame rate                    : 29.970 (29970/1000) FPS
Color space                    : YUV
Chroma subsampling            : 4:2:0
Bit depth                      : 8 bits
Scan type                      : Progressive
Compression mode              : Lossy
Bits/(Pixel*Frame)            : 0.104
Stream size                    : 792 MiB (79%)
Writing library                : DivX 5.1.1 (Maupiti) (UTC 2003-11-19)

Audio
ID                            : 1 (0x1)
Format                        : MPEG Audio
Format version                : Version 1
Format profile                : Layer 3
Codec ID                      : 55
Codec ID/Hint                  : MP3
Duration                      : 1 h 55 min
Bit rate mode                  : Constant
Bit rate                      : 192 kb/s
Channel(s)                    : 2 channels
Sampling rate                  : 48.0 kHz
Compression mode              : Lossy
Stream size                    : 159 MiB (16%)

Menu
00:00:00.000                  : Chapter 1
00:02:32.000                  : Chapter 2
00:11:57.000                  : Chapter 3
00:30:11.000                  : Chapter 4
00:46:09.000                  : Chapter 5
01:03:02.000                  : Chapter 6
01:17:20.000                  : Chapter 7
01:32:48.000                  : Chapter 8
01:52:39.000                  : Chapter 9

Added2016-07-27 12:36:00
Size997.33 MB (1,045,780,129 bytes)
Views91
Num files1 files
Pictures