Taken down by DMCA request

Sean Cody - 1849 - Oliver & Porter (Bareback) [720p]

CategoryBareback
Download
You need to Login or Signup first.
DescriptionFormat                                  : MPEG-4
Format profile                          : Base Media
Codec ID                                : isom
File size                                : 959 MiB
Duration                                : 26mn 31s
Overall bit rate mode                    : Variable
Overall bit rate                        : 5 054 Kbps
Movie name                              : Sean Cody: Oliver & Porter (Bareback)
Performer                                : Sean Cody
ContentType                              : Short Film
Encoded date                            : UTC 2014-10-02 07:42:41
Tagged date                              : UTC 2014-10-02 07:43:34
Writing application                      : MkvToMp4 [www.mkvtomp4.ru] version: 0.224 (x64)
Copyright                                : © Cody Media Inc. All Rights Reserved.
Cover                                    : Yes


Video
ID                                      : 1
Format                                  : AVC
Format/Info                              : Advanced Video Codec
Format profile                          : High@L4.1
Format settings, CABAC                  : Yes
Format settings, ReFrames                : 4 frames
Codec ID                                : avc1
Codec ID/Info                            : Advanced Video Coding
Duration                                : 26mn 31s
Bit rate                                : 5 000 Kbps
Maximum bit rate                        : 17.6 Mbps
Width                                    : 1 280 pixels
Height                                  : 720 pixels
Display aspect ratio                    : 16:9
Frame rate mode                          : Constant
Frame rate                              : 29.970 fps
Color space                              : YUV
Chroma subsampling                      : 4:2:0
Bit depth                                : 8 bits
Scan type                                : Progressive
Bits/(Pixel*Frame)                      : 0.181
Stream size                              : 948 MiB (99%)
Language                                : English


Audio
ID                                      : 2
Format                                  : AAC
Format/Info                              : Advanced Audio Codec
Format profile                          : LC
Codec ID                                : 40
Duration                                : 26mn 31s
Bit rate mode                            : Variable
Bit rate                                : 48.0 Kbps
Maximum bit rate                        : 50.6 Kbps
Channel count                            : 2 channels
Channel positions                        : Front: L R
Sampling rate                            : 48.0 KHz
Compression mode                        : Lossy
Stream size                              : 9.11 MiB (1%)
Language                                : English
Added2014-10-02 23:37:24
Size959.17 MB (1,005,763,006 bytes)
Views3
Num files1 files
Pictures